\m/ 80's metal \m/

Информационно-аналитический форум "80 см пыли" (In Search We Trust) "У нас никто никуда не спешит"
Me For You - http://me-4u.com
It is currently 19 Nov 2018

All times are UTC + 3 hours

Spoiler
Chat - temporary registration for foreign users (please leave your application here)







Post new topic Reply to topic  [ 4 posts ] 
Author Message
 
PostPosted: 27 Aug 2009 
Персональный статус
User avatar
Joined: 02 Feb 2009
Posts: 236
Lоcаtion: Тульская область
Age: 52
Name: Владимир
Mari Hamada - Blue Revolution (1985, Victor)
Image
Location: Japan
Format: flac+cue+log-no covers
Size: 277 Mb

Track List:
01 Blue Revolution
02 Helter Skelter
03 Love Trial
04 Empty Heart
05 Stormy Love
06 Another Way
07 Keep On Dreams
08 Hard Dancin'
09 What About Love

Лог ЕАС
Exact Audio Copy V0.99 prebeta 4 from 23. January 2008

EAC extraction logfile from 5. August 2009, 21:17

Mari Hamada / Blue Revolution

Used drive : MATSHITADVD-ROM SR-8588 Adapter: 1 ID: 1

Read mode : Secure
Utilize accurate stream : Yes
Defeat audio cache : Yes
Make use of C2 pointers : No

Read offset correction : 103
Overread into Lead-In and Lead-Out : No
Fill up missing offset samples with silence : Yes
Delete leading and trailing silent blocks : No
Null samples used in CRC calculations : Yes
Used interface : Installed external ASPI interface

Used output format : Internal WAV Routines
Sample format : 44.100 Hz; 16 Bit; Stereo


TOC of the extracted CD

Track | Start | Length | Start sector | End sector
---------------------------------------------------------
1 | 0:00.00 | 4:48.65 | 0 | 21664
2 | 4:48.65 | 3:14.15 | 21665 | 36229
3 | 8:03.05 | 4:29.20 | 36230 | 56424
4 | 12:32.25 | 4:08.13 | 56425 | 75037
5 | 16:40.38 | 3:34.27 | 75038 | 91114
6 | 20:14.65 | 4:02.20 | 91115 | 109284
7 | 24:17.10 | 4:58.05 | 109285 | 131639
8 | 29:15.15 | 5:04.23 | 131640 | 154462
9 | 34:19.38 | 3:38.07 | 154463 | 170819


Range status and errors

Selected range

Filename C:\EAC\Mari Hamada - Blue Revolution.wav

Peak level 99.3 %
Range quality 100.0 %
Test CRC 1F004DCB
Copy CRC 1F004DCB
Copy OK

No errors occurred


AccurateRip summary

Track 1 accurately ripped (confidence 1) [E9064187]
Track 2 accurately ripped (confidence 1) [C1222526]
Track 3 accurately ripped (confidence 1) [457784CE]
Track 4 accurately ripped (confidence 1) [5B7B1A09]
Track 5 accurately ripped (confidence 1) [A059F5E8]
Track 6 accurately ripped (confidence 1) [250A5453]
Track 7 accurately ripped (confidence 1) [A46B69A8]
Track 8 accurately ripped (confidence 1) [56316EEC]
Track 9 accurately ripped (confidence 1) [C2E0671B]

All tracks accurately ripped

End of status report

Скачать с Меги



Mari Hamada - Rainbow Dream (1985, Victor)
Image
Location: Japan
Format: flac+cue+log-no covers
Size: 248 Mb

Track List:
01 Rainbow Dream
02 Can't You See My Life
03 The Moment Of Truth
04 Love, Love, Love
05 Last Scene
06 Love Magic
07 Free Way
08 Lonely Wowan
09 Hearty My Song

Лог ЕАС
Exact Audio Copy V0.99 prebeta 4 from 23. January 2008

EAC extraction logfile from 7. August 2009, 15:50

Mari Hamada / Rainbow Dream

Used drive : MATSHITADVD-ROM SR-8588 Adapter: 1 ID: 1

Read mode : Secure
Utilize accurate stream : Yes
Defeat audio cache : Yes
Make use of C2 pointers : No

Read offset correction : 103
Overread into Lead-In and Lead-Out : No
Fill up missing offset samples with silence : Yes
Delete leading and trailing silent blocks : No
Null samples used in CRC calculations : Yes
Used interface : Installed external ASPI interface

Used output format : Internal WAV Routines
Sample format : 44.100 Hz; 16 Bit; Stereo


TOC of the extracted CD

Track | Start | Length | Start sector | End sector
---------------------------------------------------------
1 | 0:00.00 | 1:13.60 | 0 | 5534
2 | 1:13.60 | 4:54.55 | 5535 | 27639
3 | 6:08.40 | 3:26.60 | 27640 | 43149
4 | 9:35.25 | 4:32.47 | 43150 | 63596
5 | 14:07.72 | 3:59.08 | 63597 | 81529
6 | 18:07.05 | 4:15.47 | 81530 | 100701
7 | 22:22.52 | 4:50.53 | 100702 | 122504
8 | 27:13.30 | 3:42.17 | 122505 | 139171
9 | 30:55.47 | 4:15.15 | 139172 | 158311


Range status and errors

Selected range

Filename C:\EAC\Mari Hamada - Rainbow Dream.wav

Peak level 99.3 %
Range quality 100.0 %
Test CRC A4045B52
Copy CRC A4045B52
Copy OK

No errors occurred


AccurateRip summary

Track 1 not present in database
Track 2 not present in database
Track 3 not present in database
Track 4 not present in database
Track 5 not present in database
Track 6 not present in database
Track 7 not present in database
Track 8 not present in database
Track 9 not present in database

None of the tracks are present in the AccurateRip database

End of status report

Скачать с Меги



Mari Hamada - Promise In The History (1986, Victor)
Image
Location: Japan
Format: flac+cue+log-no covers
Size: 278 Mb

Track List:
01 Fearless Night
02 Private Emotion
03 Come And Go
04 Promise In The History
05 Memory In Vain
06 Love And Free
07 Time Again
08 Earth-Born

Лог ЕАС
Exact Audio Copy V0.99 prebeta 4 from 23. January 2008

EAC extraction logfile from 9. August 2009, 9:54

Mari Hamada / Promise In The History

Used drive : MATSHITADVD-ROM SR-8588 Adapter: 1 ID: 1

Read mode : Secure
Utilize accurate stream : Yes
Defeat audio cache : Yes
Make use of C2 pointers : No

Read offset correction : 103
Overread into Lead-In and Lead-Out : No
Fill up missing offset samples with silence : Yes
Delete leading and trailing silent blocks : No
Null samples used in CRC calculations : Yes
Used interface : Installed external ASPI interface

Used output format : Internal WAV Routines
Sample format : 44.100 Hz; 16 Bit; Stereo


TOC of the extracted CD

Track | Start | Length | Start sector | End sector
---------------------------------------------------------
1 | 0:00.00 | 5:32.55 | 0 | 24954
2 | 5:32.55 | 4:44.73 | 24955 | 46327
3 | 10:17.53 | 3:26.37 | 46328 | 61814
4 | 13:44.15 | 4:55.40 | 61815 | 83979
5 | 18:39.55 | 4:31.43 | 83980 | 104347
6 | 23:11.23 | 4:13.55 | 104348 | 123377
7 | 27:25.03 | 4:25.22 | 123378 | 143274
8 | 31:50.25 | 5:25.50 | 143275 | 167699


Range status and errors

Selected range

Filename C:\EAC\Mari Hamada - Promise In The History.wav

Peak level 99.3 %
Range quality 100.0 %
Test CRC 96FCCFDE
Copy CRC 96FCCFDE
Copy OK

No errors occurred


AccurateRip summary

Track 1 not present in database
Track 2 not present in database
Track 3 not present in database
Track 4 not present in database
Track 5 not present in database
Track 6 not present in database
Track 7 not present in database
Track 8 not present in database

None of the tracks are present in the AccurateRip database

End of status report

Скачать с Меги

Все альбомы представлены ffsf на ресурсе (HQShare.Net), за что ему большое спасибо.

_________________
http://img254.imageshack.us/img254/1015 ... 743574.gif
http://img140.imageshack.us/img140/7192 ... arlogo.jpg


Top
 Profile  
 
 
PostPosted: 27 Aug 2009 
Хиппей (support team)
User avatar
Joined: 30 Jul 2007
Posts: 108153
Lоcаtion: Киев (Kyiv, UA)
Age: 45
Name: Andrey
Спасибо :thanx:

_________________


Top
 Profile E-mail  
 
 
PostPosted: 28 Aug 2009 
5cm
User avatar
Joined: 05 May 2009
Posts: 52
Lоcаtion: Kherson
Age: 47
Name: Oleg
Спасибо тебе crimson22 и ffsfу.
Баяре! Еслм кто коврики нарыл. поделитесь плз.


Top
 Profile E-mail  
 
 
PostPosted: 28 Aug 2009 
хард н хэвщик (support team)
User avatar
Joined: 02 Jun 2008
Posts: 16880
Lоcаtion: Н.Новгород
Age: 31
Name: Артем
спасибо огромное :true: :true: :true:


Top
 Profile  
 
Display posts from previous:  Sort by  
Post new topic Reply to topic  [ 4 posts ] 

All times are UTC + 3 hours


Who is online

Users browsing this forum: No registered users and 2 guests


You cannot post new topics in this forum
You cannot reply to topics in this forum
You cannot edit your posts in this forum
You cannot delete your posts in this forum
You cannot post attachments in this forum

Search for:
Яндекс.Метрика
Powered by phpBB © 2000, 2002, 2005, 2007 phpBB Group