\m/ 80's metal \m/

Информационно-аналитический форум "80 см пыли" (In Search We Trust) "У нас никто никуда не спешит"
Me For You - http://me-4u.com
It is currently 23 Sep 2018

All times are UTC + 3 hours

Spoiler
Chat - temporary registration for foreign users (please leave your application here)







Post new topic Reply to topic  [ 25 posts ]  Go to page 1, 2  Next
Author Message
 
PostPosted: 17 Aug 2009 
Я набрал 1000 сообщений!
User avatar
Joined: 25 Dec 2008
Posts: 1545
Age: 43
Name: Павел
MARI HAMADA [1984] [CD] Misty Lady

Image

Genre: Heavy Metal
Country:Japan
Format:flac+cue+log+covers
File Size: 326.38 MB

Tracklist:
01 Paradise
02 Sweet Lie
03 Heart Line
04 Passing Over
05 Fly On Wings
06 Misty Lady
07 More Fine Feeling
08 Turning Point


Релиз от frafra64
MARI HAMADA (浜田麻里) [1984] [CD] Misty Lady [EAC-FLAC] by frafra64 [MeTaLMaDNeSS.TeaM].rar


Last edited by hawkhunter on 02 Sep 2009, edited 1 time in total.

Top
 Profile  
 
 
PostPosted: 17 Aug 2009 
хард н хэвщик (support team)
User avatar
Joined: 02 Jun 2008
Posts: 16880
Lоcаtion: Н.Новгород
Age: 31
Name: Артем
:true: :true: спасибо обоим


Top
 Profile  
 
 
PostPosted: 20 Aug 2009 
.
Joined: 01 Mar 2009
Posts: 136
Age: 36
Name: .
а че-то у меня из флака не распаковывается, выдает ошибку метадаты

_________________
Image


Top
 Profile  
 
 
PostPosted: 20 Aug 2009 
Хиппей (support team)
User avatar
Joined: 30 Jul 2007
Posts: 106485
Lоcаtion: Киев (Kyiv, UA)
Age: 45
Name: Andrey
Хм, мож дело опять с иероглифах? :vic:

_________________


Top
 Profile E-mail  
 
 
PostPosted: 20 Aug 2009 
хард н хэвщик (support team)
User avatar
Joined: 02 Jun 2008
Posts: 16880
Lоcаtion: Н.Новгород
Age: 31
Name: Артем
Headbanger wrote:
а че-то у меня из флака не распаковывается, выдает ошибку метадаты

из куя удали нафик все крякозабры , заменив на любые другие символы английского алфавита


Top
 Profile  
 
 
PostPosted: 20 Aug 2009 
Хиппей (support team)
User avatar
Joined: 30 Jul 2007
Posts: 106485
Lоcаtion: Киев (Kyiv, UA)
Age: 45
Name: Andrey
Ребята-заливальщики, копируйте сюда, плиз, куй и лог :fingal:

_________________


Top
 Profile E-mail  
 
 
PostPosted: 20 Aug 2009 
Я набрал 1000 сообщений!
User avatar
Joined: 25 Dec 2008
Posts: 1545
Age: 43
Name: Павел
Куй вам! :nunu: Андрюха, ты сделал бы мануал по правильному добавлению лосей-а то я тыкнул туда-сюда,да и сделал как умею.


Top
 Profile  
 
 
PostPosted: 20 Aug 2009 
Хиппей (support team)
User avatar
Joined: 30 Jul 2007
Posts: 106485
Lоcаtion: Киев (Kyiv, UA)
Age: 45
Name: Andrey
hawkhunter wrote:
мануал

viewforum.php?f=31

_________________


Top
 Profile E-mail  
 
 
PostPosted: 20 Aug 2009 
хард н хэвщик (support team)
User avatar
Joined: 02 Jun 2008
Posts: 16880
Lоcаtion: Н.Новгород
Age: 31
Name: Артем
Ну проблема-то очевидная, как легендарная , набившая оскомину проблема с куевой пятой строчкой от Толика "Приватира", тут и на куй-то нечего смотреть


Top
 Profile  
 
 
PostPosted: 20 Aug 2009 
.
Joined: 01 Mar 2009
Posts: 136
Age: 36
Name: .
McKagan wrote:
Headbanger wrote:
а че-то у меня из флака не распаковывается, выдает ошибку метадаты

из куя удали нафик все крякозабры , заменив на любые другие символы английского алфавита

а там вроде и так не было ничего. Как ты из флака в вав разжал?

_________________
Image


Top
 Profile  
 
 
PostPosted: 20 Aug 2009 
.
Joined: 01 Mar 2009
Posts: 136
Age: 36
Name: .
вот, кстати, лог и куй

лог
Exact Audio Copy V0.99 prebeta 3 from 28. July 2007

EAC extraction logfile from 20. March 2009, 20:27

mari hamada / romantic night

Used drive : MATSHITADVD-ROM SR-8588 Adapter: 1 ID: 1

Read mode : Secure
Utilize accurate stream : Yes
Defeat audio cache : Yes
Make use of C2 pointers : No

Read offset correction : 103
Overread into Lead-In and Lead-Out : No
Fill up missing offset samples with silence : Yes
Delete leading and trailing silent blocks : No
Null samples used in CRC calculations : Yes
Used interface : Installed external ASPI interface

Used output format : Internal WAV Routines
Sample format : 44.100 Hz; 16 Bit; Stereo


TOC of the extracted CD

Track | Start | Length | Start sector | End sector
---------------------------------------------------------
1 | 0:00.00 | 4:28.38 | 0 | 20137
2 | 4:28.38 | 4:12.50 | 20138 | 39087
3 | 8:41.13 | 3:56.52 | 39088 | 56839
4 | 12:37.65 | 3:13.45 | 56840 | 71359
5 | 15:51.35 | 5:17.08 | 71360 | 95142
6 | 21:08.43 | 3:57.12 | 95143 | 112929
7 | 25:05.55 | 4:14.18 | 112930 | 131997
8 | 29:19.73 | 3:54.30 | 131998 | 149577
9 | 33:14.28 | 4:57.70 | 149578 | 171922
10 | 38:12.23 | 1:28.45 | 171923 | 178567


Range status and errors

Selected range

Filename J:\MMT\mari hamada - romantic night.wav

Peak level 99.3 %
Range quality 99.9 %
Test CRC 98C786A3
Copy CRC 98C786A3
Copy OK

No errors occurred


AccurateRip summary

Track 1 not present in database
Track 2 not present in database
Track 3 not present in database
Track 4 not present in database
Track 5 not present in database
Track 6 not present in database
Track 7 not present in database
Track 8 not present in database
Track 9 not present in database
Track 10 not present in database

None of the tracks are present in the AccurateRip database

End of status report


куй
REM DISCID 8B094C0A
REM COMMENT "ExactAudioCopy v0.99pb3"
PERFORMER "Mari Hamada"
TITLE "Romantic Night"
FILE "Mari Hamada - Romantic Night.wav" WAVE
TRACK 01 AUDIO
TITLE "Don't Change Your Mind"
PERFORMER "Mari Hamada"
INDEX 01 00:00:00
TRACK 02 AUDIO
TITLE "Violence Fire"
PERFORMER "Mari Hamada"
INDEX 01 04:28:38
TRACK 03 AUDIO
TITLE "From Long Ago"
PERFORMER "Mari Hamada"
INDEX 00 08:41:12
INDEX 01 08:41:13
TRACK 04 AUDIO
TITLE "Xanadu"
PERFORMER "Mari Hamada"
INDEX 01 12:37:65
TRACK 05 AUDIO
TITLE "Lost My Heart"
PERFORMER "Mari Hamada"
INDEX 01 15:51:35
TRACK 06 AUDIO
TITLE "Romantic Night"
PERFORMER "Mari Hamada"
INDEX 00 21:08:39
INDEX 01 21:08:43
TRACK 07 AUDIO
TITLE "Shadow"
PERFORMER "Mari Hamada"
INDEX 00 25:05:54
INDEX 01 25:05:55
TRACK 08 AUDIO
TITLE "Can't Stop The Rock'n Roll"
PERFORMER "Mari Hamada"
INDEX 00 29:19:70
INDEX 01 29:19:73
TRACK 09 AUDIO
TITLE "Jumping High"
PERFORMER "Mari Hamada"
INDEX 01 33:14:28
TRACK 10 AUDIO
TITLE "So Long"
PERFORMER "Mari Hamada"
INDEX 01 38:12:23

_________________
Image


Top
 Profile  
 
 
PostPosted: 20 Aug 2009 
хард н хэвщик (support team)
User avatar
Joined: 02 Jun 2008
Posts: 16880
Lоcаtion: Н.Новгород
Age: 31
Name: Артем
Headbanger wrote:
а там вроде и так не было ничего. Как ты из флака в вав разжал?

я еще пока не качал.
как скачаю, отпишусь, но сдается мне, все дело в пятой строчке.
какие файлы в архиве?
эти?
Mari Hamada - Romantic Night.flac
Mari Hamada - Romantic Night.cue


Top
 Profile  
 
 
PostPosted: 20 Aug 2009 
Хиппей (support team)
User avatar
Joined: 30 Jul 2007
Posts: 106485
Lоcаtion: Киев (Kyiv, UA)
Age: 45
Name: Andrey
FILE "Mari Hamada - Romantic Night.wav" WAVE
Опять переименовать в:
FILE "Mari Hamada - Romantic Night.ape" WAVE :fingal:

_________________


Top
 Profile E-mail  
 
 
PostPosted: 21 Aug 2009 
.
Joined: 01 Mar 2009
Posts: 136
Age: 36
Name: .
Scatterbrain wrote:
FILE "Mari Hamada - Romantic Night.wav" WAVE
Опять переименовать в:
FILE "Mari Hamada - Romantic Night.ape" WAVE :fingal:

APE? Так сам лось вроде во флаке

_________________
Image


Top
 Profile  
 
 
PostPosted: 21 Aug 2009 
.
Joined: 01 Mar 2009
Posts: 136
Age: 36
Name: .
McKagan wrote:
Headbanger wrote:
а там вроде и так не было ничего. Как ты из флака в вав разжал?

я еще пока не качал.
как скачаю, отпишусь, но сдается мне, все дело в пятой строчке.
какие файлы в архиве?
эти?
Mari Hamada - Romantic Night.flac
Mari Hamada - Romantic Night.cue

да, эти

_________________
Image


Top
 Profile  
 
 
PostPosted: 21 Aug 2009 
хард н хэвщик (support team)
User avatar
Joined: 02 Jun 2008
Posts: 16880
Lоcаtion: Н.Новгород
Age: 31
Name: Артем
Headbanger wrote:
да, эти

у тебя в куе пятая строчка:
FILE "Mari Hamada - Romantic Night.wav" WAVE

значит, поменяй эту строчку на
FILE "Mari Hamada - Romantic Night.flac" WAVE

и всего делов


Top
 Profile  
 
 
PostPosted: 21 Aug 2009 
Прокъмитолист
User avatar
Joined: 12 Aug 2007
Posts: 6473
Lоcаtion: Санктъ-Петербуркъ
Age: 50
Name: Олекъ
по моему, коллеги, вы немного не о том говорите. человеку надо не записать болванку - ему надо разжать лося в вав. при чем тут куй и его строчки? если при разжатии выдается ошибка - то скорее всего файл поврежден.

Headbanger
во-первых, давай разберемся чем ты пытаешься разжать и что конкретно тебе пишут при этом.

_________________
прокъметол - это музыко, от которово есть прок (ы)


Top
 Profile  
 
 
PostPosted: 21 Aug 2009 
.
Joined: 01 Mar 2009
Posts: 136
Age: 36
Name: .
разжать пытаюсь FLAC fronted, а пишут вот что
Image

_________________
Image


Top
 Profile  
 
 
PostPosted: 21 Aug 2009 
Хиппей (support team)
User avatar
Joined: 30 Jul 2007
Posts: 106485
Lоcаtion: Киев (Kyiv, UA)
Age: 45
Name: Andrey
Нажал любую клавишу - ничо не происходит :vic:

_________________


Top
 Profile E-mail  
 
 
PostPosted: 21 Aug 2009 
Прокъмитолист
User avatar
Joined: 12 Aug 2007
Posts: 6473
Lоcаtion: Санктъ-Петербуркъ
Age: 50
Name: Олекъ
хм... могу только посоветовать попробовать обновить версию кодера (просто замени экзешник flac.exe в папке FLAC на новый). у меня с 1.2.1 никаких проблем - файл распаковался нормально (а у тебя стоит 1.1.4). если же это не поможет, значит файл у тебя битый скачался :umnik:

_________________
прокъметол - это музыко, от которово есть прок (ы)


Top
 Profile  
 
Display posts from previous:  Sort by  
Post new topic Reply to topic  [ 25 posts ]  Go to page 1, 2  Next

All times are UTC + 3 hours


Who is online

Users browsing this forum: No registered users and 1 guest


You cannot post new topics in this forum
You cannot reply to topics in this forum
You cannot edit your posts in this forum
You cannot delete your posts in this forum
You cannot post attachments in this forum

Search for:
Яндекс.Метрика
Powered by phpBB © 2000, 2002, 2005, 2007 phpBB Group