\m/ 80's metal \m/

Информационно-аналитический форум "80 см пыли" (In Search We Trust) "У нас никто никуда не спешит"
Me For You - http://me-4u.com
It is currently 13 Nov 2018

All times are UTC + 3 hours

Spoiler
Chat - temporary registration for foreign users (please leave your application here)







Post new topic Reply to topic  [ 3 posts ] 
Author Message
 
PostPosted: 08 Jul 2009 
Old Time Rock`n`Roll
User avatar
Joined: 23 Jun 2008
Posts: 3363
Lоcаtion: г.Ульяновск
Age: 40
Name: Константин
John Cougar Mellencamp

Year:1983 + 1985
Style: Heartland Rock, Country Rock, Rock`n`Roll, Hard Rock, Melodic Rock
Country: USA
Format: flac (потрековый) +mp3, 320kbps, (cue+log+scans)
Size: 255/86 + 261/96 Mb


John Cougar Mellencamp - Uh Huh (1983)

Image

Tracklist:

01.Crumblin' Down (Green, Mellencamp)
02.Pink Houses (Mellencamp)
03. Authority Song (Mellencamp)
04.Warmer Place To Sleep (Green, Mellencamp)
05.Jackie O (Mellencamp, Prine)
06.Play Guitar (Crane, Mellencamp, Ross)
07.Serious Business (Mellencamp)
08.Lovin' Moter Fo Ya (Cary, Mellencamp)
09.Golden Gates (Mellencamp)
10.Pink Houses (Acoustic Version)

TPT – 36:49

Credits:
John Mellencamp - Guitar, Vocals
Kenny Aronoff - Drums, Percussion
Larry Crane – Guitar
Mike Wanchic - Guitar
Toby Myers – Bass
Willie Weeks – Bass
Carol Sue Hill – Vocals
Jay Ferguson – Vocals
Louis Johnson – Bass
Greg Edward – Engineer
David Thoener - Engineer, Mixing


Chart Position:
USA # 9

Charting Singles:
Crumblin' Down USA # 9
Pink Houses USA # 8
Authority Song USA # 15

Спектры

Image

Лог
Exact Audio Copy V0.99 prebeta 4 from 23. January 2008

EAC extraction logfile from 6. April 2009, 15:36

John Mellencamp / Uh-Huh (Remastered)

Used drive : PLEXTOR DVDR PX-716A Adapter: 2 ID: 0

Read mode : Secure
Utilize accurate stream : Yes
Defeat audio cache : Yes
Make use of C2 pointers : No

Read offset correction : 30
Overread into Lead-In and Lead-Out : No
Fill up missing offset samples with silence : Yes
Delete leading and trailing silent blocks : No
Null samples used in CRC calculations : No
Used interface : Native Win32 interface for Win NT & 2000
Gap handling : Appended to previous track

Used output format : User Defined Encoder
Selected bitrate : 1024 kBit/s
Quality : High
Add ID3 tag : Yes
Command line compressor : C:\Program Files\Exact Audio Copy\FLAC\FLAC.EXE
Additional command line options : -6 -V -T "ARTIST=%a" -T "TITLE=%t" -T "ALBUM=%g" -T "DATE=%y" -T "TRACKNUMBER=%n" -T "GENRE=%m" -T "COMMENT=%e" %s -o %d


TOC of the extracted CD

Track | Start | Length | Start sector | End sector
---------------------------------------------------------
1 | 0:00.00 | 3:35.42 | 0 | 16166
2 | 3:35.42 | 4:44.15 | 16167 | 37481
3 | 8:19.57 | 3:49.65 | 37482 | 54721
4 | 12:09.47 | 3:47.45 | 54722 | 71791
5 | 15:57.17 | 3:03.68 | 71792 | 85584
6 | 19:01.10 | 3:23.50 | 85585 | 100859
7 | 22:24.60 | 3:25.35 | 100860 | 116269
8 | 25:50.20 | 3:06.15 | 116270 | 130234
9 | 28:56.35 | 4:07.20 | 130235 | 148779
10 | 33:03.55 | 3:44.65 | 148780 | 165644


Track 1

Filename C:\Users\Administrator\My Documents\EAC Rips\01. John Mellencamp - Crumblin' Down.wav

Pre-gap length 0:00:02.00

Peak level 98.8 %
Track quality 100.0 %
Test CRC DCA9C4E5
Copy CRC DCA9C4E5
Accurately ripped (confidence 13) [53601DD3]
Copy OK

Track 2

Filename C:\Users\Administrator\My Documents\EAC Rips\02. John Mellencamp - Pink Houses.wav

Pre-gap length 0:00:01.32

Peak level 98.8 %
Track quality 100.0 %
Test CRC E78FC190
Copy CRC E78FC190
Accurately ripped (confidence 13) [06C6C3E3]
Copy OK

Track 3

Filename C:\Users\Administrator\My Documents\EAC Rips\03. John Mellencamp - Authority Song.wav

Pre-gap length 0:00:00.40

Peak level 98.8 %
Track quality 100.0 %
Test CRC D42138BB
Copy CRC D42138BB
Accurately ripped (confidence 13) [79C97DDD]
Copy OK

Track 4

Filename C:\Users\Administrator\My Documents\EAC Rips\04. John Mellencamp - Warmer Place To Sleep.wav

Pre-gap length 0:00:00.47

Peak level 98.8 %
Track quality 100.0 %
Test CRC 7F1F1931
Copy CRC 7F1F1931
Accurately ripped (confidence 13) [168B01AD]
Copy OK

Track 5

Filename C:\Users\Administrator\My Documents\EAC Rips\05. John Mellencamp - Jackie O.wav

Peak level 83.1 %
Track quality 100.0 %
Test CRC 72C8DB79
Copy CRC 72C8DB79
Accurately ripped (confidence 13) [C3DEA90C]
Copy OK

Track 6

Filename C:\Users\Administrator\My Documents\EAC Rips\06. John Mellencamp - Play Guitar.wav

Peak level 98.8 %
Track quality 100.0 %
Test CRC FBDF98C8
Copy CRC FBDF98C8
Accurately ripped (confidence 13) [9CE1CBA3]
Copy OK

Track 7

Filename C:\Users\Administrator\My Documents\EAC Rips\07. John Mellencamp - Serious Business.wav

Peak level 98.8 %
Track quality 100.0 %
Test CRC 86C497D0
Copy CRC 86C497D0
Accurately ripped (confidence 13) [9685E5DE]
Copy OK

Track 8

Filename C:\Users\Administrator\My Documents\EAC Rips\08. John Mellencamp - Lovin' Moter Fo Ya.wav

Peak level 98.8 %
Track quality 100.0 %
Test CRC 3FD231E9
Copy CRC 3FD231E9
Accurately ripped (confidence 13) [16C2281C]
Copy OK

Track 9

Filename C:\Users\Administrator\My Documents\EAC Rips\09. John Mellencamp - Golden Gates.wav

Peak level 98.8 %
Track quality 100.0 %
Test CRC CF9DB638
Copy CRC CF9DB638
Accurately ripped (confidence 13) [31FA9A1C]
Copy OK

Track 10

Filename C:\Users\Administrator\My Documents\EAC Rips\10. John Mellencamp - Pink Houses (Acoustic Version).wav

Pre-gap length 0:00:02.65

Peak level 98.8 %
Track quality 100.0 %
Test CRC C11F479A
Copy CRC C11F479A
Accurately ripped (confidence 12) [CCB2CD58]
Copy OK


All tracks accurately ripped

No errors occurred

End of status report


flac
http://ifolder.ru/12967449
http://ifolder.ru/12973266
http://ifolder.ru/12983068

mp-320
http://www.megaupload.com/?d=PW5R09LR


John Cougar Mellencamp - Scarecrow (1985)

Image

Tracklist:
01. Rain On The Scarecrow (Green, Mellencamp)
02. Grandma's Theme
03. Small Town (Mellencamp)
04. Minutes To Memories (Green, Mellencamp)
05. Lonely Ol' Night (Mellencamp)
06. The Face Of The Nation (Mellencamp)
07. Justice And Independence '85 (Mellencamp)
08. Between A Laugh And A Tear (Mellencamp)
09. Rumbleseat (Mellencamp)
10. You've Got To Stand For Somethin' (Mellencamp)
11. R.O.C.K. in the U.S.A. (A Salute To 60's Rock) (Mellencamp)
12. The Kind Of Fella I Am (Mellencamp)

TPT – 41:29

Credits:

John Mellencamp - Guitar, Vocals
Laura Mellencamp - Vocals
Rickie Lee Jones - Vocals
Mimi Mapes - Vocals, Vocals (bckgr)
Mike Wanchic - Guitar, Guitar (Electric), Vocals, Vocals (bckgr)
A. Jack Wilkins - Saxophone
Sarah Flint - Vocals, Vocals (bckgr)
Kenny Aronoff - Drums, Tambourine, Vocals (bckgr), Vibraphone
John Cascella - Keyboards
Larry Crane - Guitar (Acoustic), Guitar, Guitar (Electric), Vocals (bckgr)
Richard Fanning - Trumpet
Toby Myers - Bass, Bass (Electric), Guitar (Bass), Vocals (bckgr)
Don Gehman - Producer, Engineer, Mixing
Little Bastard - Producer
Greg Edward - Engineer, Mixing
Rick Fettig - Assistant Engineer
Bob Ludwig - Mastering
Ross Alexander – Engineer

Chart Position:
USA # 2

Charting Singles:
Lonely Ol' Night USA # 6
Small Town USA # 6
R.O.C.K. in the U.S.A USA # 2
Rain On The Scarecrow USA # 21
Rumbleseat USA # 28

Спектры

Image

Лог
Exact Audio Copy V0.99 prebeta 4 from 23. January 2008

EAC extraction logfile from 26. October 2008, 14:47

John Cougar Mellencamp / Scarecrow

Used drive : MATSHITAUJ-845D Adapter: 0 ID: 1

Read mode : Secure
Utilize accurate stream : Yes
Defeat audio cache : No
Make use of C2 pointers : No

Read offset correction : 102
Overread into Lead-In and Lead-Out : No
Fill up missing offset samples with silence : Yes
Delete leading and trailing silent blocks : No
Null samples used in CRC calculations : No
Used interface : Native Win32 interface for Win NT & 2000
Gap handling : Appended to previous track

Used output format : User Defined Encoder
Selected bitrate : 768 kBit/s
Quality : High
Add ID3 tag : No
Command line compressor : C:\Program Files\Exact Audio Copy\FLAC\FLAC.EXE
Additional command line options : -8 -V -T "ARTIST=%a" -T "TITLE=%t" -T "ALBUM=%g" -T "DATE=%y" -T "TRACKNUMBER=%n" -T "GENRE=%m" -T "COMMENT=%e" %s -o %d


TOC of the extracted CD

Track | Start | Length | Start sector | End sector
---------------------------------------------------------
1 | 0:00.00 | 3:46.60 | 0 | 17009
2 | 3:46.60 | 0:56.07 | 17010 | 21216
3 | 4:42.67 | 3:43.58 | 21217 | 37999
4 | 8:26.50 | 4:15.40 | 38000 | 57164
5 | 12:42.15 | 3:47.35 | 57165 | 74224
6 | 16:29.50 | 3:16.17 | 74225 | 88941
7 | 19:45.67 | 3:35.58 | 88942 | 105124
8 | 23:21.50 | 4:35.37 | 105125 | 125786
9 | 27:57.12 | 3:01.00 | 125787 | 139361
10 | 30:58.12 | 4:35.18 | 139362 | 160004
11 | 35:33.30 | 2:56.62 | 160005 | 173266
12 | 38:30.17 | 2:58.08 | 173267 | 186624


Track 1

Filename D:\Temp\John Cougar Mellencamp - (1985) Scarecrow\(01) John Cougar Mellencamp - Rain On The Scarecrow.wav

Pre-gap length 0:00:02.00

Peak level 52.6 %
Track quality 99.9 %
Copy CRC B3881A13
Accurately ripped (confidence 2) [29E13491]
Copy OK

Track 2

Filename D:\Temp\John Cougar Mellencamp - (1985) Scarecrow\(02) John Cougar Mellencamp - Grandma's Theme.wav

Peak level 27.0 %
Track quality 100.0 %
Copy CRC 744A9B4B
Accurately ripped (confidence 2) [759AA07B]
Copy OK

Track 3

Filename D:\Temp\John Cougar Mellencamp - (1985) Scarecrow\(03) John Cougar Mellencamp - Small Town.wav

Peak level 54.9 %
Track quality 99.9 %
Copy CRC DD361611
Accurately ripped (confidence 2) [07FDA5E9]
Copy OK

Track 4

Filename D:\Temp\John Cougar Mellencamp - (1985) Scarecrow\(04) John Cougar Mellencamp - Minutes To Memories.wav

Peak level 57.6 %
Track quality 100.0 %
Copy CRC 9B8F093C
Accurately ripped (confidence 2) [D2BCC15E]
Copy OK

Track 5

Filename D:\Temp\John Cougar Mellencamp - (1985) Scarecrow\(05) John Cougar Mellencamp - Lonely Ol' Night.wav

Pre-gap length 0:00:01.65

Peak level 62.3 %
Track quality 99.9 %
Copy CRC 035A4E85
Accurately ripped (confidence 2) [A92CECF4]
Copy OK

Track 6

Filename D:\Temp\John Cougar Mellencamp - (1985) Scarecrow\(06) John Cougar Mellencamp - The Face Of The Nation.wav

Pre-gap length 0:00:00.60

Peak level 50.3 %
Track quality 99.9 %
Copy CRC E076B3A2
Accurately ripped (confidence 2) [CF6E7C57]
Copy OK

Track 7

Filename D:\Temp\John Cougar Mellencamp - (1985) Scarecrow\(07) John Cougar Mellencamp - Justice And Independence '85.wav

Peak level 53.3 %
Track quality 100.0 %
Copy CRC AB2C2D89
Accurately ripped (confidence 2) [42C87D6A]
Copy OK

Track 8

Filename D:\Temp\John Cougar Mellencamp - (1985) Scarecrow\(08) John Cougar Mellencamp - Between A Laugh And A Tear.wav

Pre-gap length 0:00:02.25

Peak level 51.6 %
Track quality 100.0 %
Copy CRC 5E2D2870
Accurately ripped (confidence 2) [C6F4306C]
Copy OK

Track 9

Filename D:\Temp\John Cougar Mellencamp - (1985) Scarecrow\(09) John Cougar Mellencamp - Rumbleseat.wav

Pre-gap length 0:00:01.25

Peak level 58.7 %
Track quality 99.9 %
Copy CRC 1B1E9BC2
Accurately ripped (confidence 2) [39050290]
Copy OK

Track 10

Filename D:\Temp\John Cougar Mellencamp - (1985) Scarecrow\(10) John Cougar Mellencamp - You've Got To Stand For Somethin'.wav

Pre-gap length 0:00:02.25

Peak level 54.3 %
Track quality 100.0 %
Copy CRC 15CD7C26
Accurately ripped (confidence 2) [88D895C9]
Copy OK

Track 11

Filename D:\Temp\John Cougar Mellencamp - (1985) Scarecrow\(11) John Cougar Mellencamp - R.O.C.K. in the U.S.A. (A Salute To 60's Rock).wav

Peak level 52.5 %
Track quality 100.0 %
Copy CRC BC3AC037
Accurately ripped (confidence 2) [3AE1E0E0]
Copy OK

Track 12

Filename D:\Temp\John Cougar Mellencamp - (1985) Scarecrow\(12) John Cougar Mellencamp - The Kind Of Fella I Am.wav

Peak level 51.2 %
Track quality 100.0 %
Copy CRC 9D89F0EF
Accurately ripped (confidence 2) [564F2D45]
Copy OK


All tracks accurately ripped

No errors occurred

End of status report


Flac
http://ifolder.ru/12958899
http://ifolder.ru/12961395
http://ifolder.ru/12959552

MP3-320
http://www.megaupload.com/?d=0TGSOYV4


Заливал на один док, чтоб добро не пропадало, выложу здесь, может кто заинтересуется.
Scarecrow (1985) – классика американского рока от обладателя премии Грэмми

За рип спасибо товарищу Kitlope


Top
 Profile  
 
 
PostPosted: 08 Jul 2009 
хард н хэвщик (support team)
User avatar
Joined: 02 Jun 2008
Posts: 16880
Lоcаtion: Н.Новгород
Age: 31
Name: Артем
группа не моего плана, но посмотрев видюшку, решил покачать. по артисцизму и харизме вокалиста напомнило творчество М.Джексона (Rip :( ) спасибо Кость

phpBB [youtube]


Top
 Profile  
 
 
PostPosted: 09 Jul 2009 
Генеральный thrasher
User avatar
Joined: 03 Oct 2008
Posts: 3493
Lоcаtion: Ханты-Мансийский АО
Age: 43
Name: Сергей
Я скачаю для брата.Спасибо!Он у меня давно ищет в лосях Мелленкампа.Финансовое положение не позволяет ему брать на CD.


Top
 Profile  
 
Display posts from previous:  Sort by  
Post new topic Reply to topic  [ 3 posts ] 

All times are UTC + 3 hours


Who is online

Users browsing this forum: No registered users and 1 guest


You cannot post new topics in this forum
You cannot reply to topics in this forum
You cannot edit your posts in this forum
You cannot delete your posts in this forum
You cannot post attachments in this forum

Search for:
Яндекс.Метрика
Powered by phpBB © 2000, 2002, 2005, 2007 phpBB Group