\m/ 80's metal \m/

Информационно-аналитический форум "80 см пыли" (In Search We Trust) "У нас никто никуда не спешит"
Me For You - http://me-4u.com
It is currently 25 Sep 2018

All times are UTC + 3 hours

Spoiler
Chat - temporary registration for foreign users (please leave your application here)







Post new topic Reply to topic  [ 4 posts ] 
Author Message
 
PostPosted: 28 Apr 2009 
Генеральный thrasher
User avatar
Joined: 03 Oct 2008
Posts: 3451
Lоcаtion: Ханты-Мансийский АО
Age: 43
Name: Сергей
Image

Year: 1997
Country: Sweden
Style: Melodic Metal
Format: Flac+Cue+Log
Size: 284Mb

Tracklist:
1. Tales of Xet Sof 03:12
2. They Were Never Even Meant to Be 04:02
3. King Kong Song 02:53
4. The Melter of Ice 04:12
5. Radio's to Blame 03:31
6. Don't Try This at Home ! 04:27
7. The Past 04:05
8. Bring Us Back 02:53
9. I Lost it All 03:01
10. Angtoria 09:08
11. Why 00:42

http://ifolder.ru/11846765
http://ifolder.ru/11846960
http://ifolder.ru/11847124


Top
 Profile  
 
 
PostPosted: 28 Apr 2009 
Генеральный thrasher
User avatar
Joined: 03 Oct 2008
Posts: 3451
Lоcаtion: Ханты-Мансийский АО
Age: 43
Name: Сергей
Давно обещал выложить.Но брательник никак не мог отправить мне посылочку с лосиком.К сожалению сканы он сделал некачественные.Я их выкладывать не буду...


Top
 Profile  
 
 
PostPosted: 28 Apr 2009 
Хиппей (support team)
User avatar
Joined: 30 Jul 2007
Posts: 106556
Lоcаtion: Киев (Kyiv, UA)
Age: 45
Name: Andrey
Спасибо! :dance:


Top
 Profile E-mail  
 
 
PostPosted: 19 Jul 2010 
Хиппей (support team)
User avatar
Joined: 30 Jul 2007
Posts: 106556
Lоcаtion: Киев (Kyiv, UA)
Age: 45
Name: Andrey
Moahni Moahna - 1997 - Why [flac]

Image

Genre: Progressive Melodic Metal (Prog-Metal Opera)
Location: Sweden
Format: flac+cue+log+scans
Size: 296 Mb


    1. Tales of Xet Sof - 03:12
    2. They Were Never Even Meant to Be - 04:02
    3. King Kong Song - 02:53
    4. The Melter of Ice - 04:12
    5. Radio's to Blame - 03:31
    6. Don't Try This at Home ! - 04:27
    7. The Past - 04:05
    8. Bring Us Back - 02:53
    9. I Lost it All - 03:01
    10. Angtoria - 09:08
    11. Why - 00:42

    TPT: 42:06

MultiUp l Narod

Ripped by spiralarch from MMT :thanx:

Второй и последний альбом группы оказался еще веселее и задорнее.
Парни попробовали записать некую мэтал-оперу, которую можно смело назвать как "Балет Щелкунчик для шведских прогрессивщиков".
Невероятное количество разноообразнейших клавишных (здесь, как и на первом релизе, активно был заюзан "Хаммонд") и духовых инструментов, плюс привычная для хэве-метола римт-секция и обилие классических фрагментов музыки (а то и целых пьес) явили миру сей опус, который по-первой прослушке вызывает ржаку и легкое недоумение, а затем расслабляет и... наслаждает :shok:
зы. Дальше группу снова прокинули с контрактом и коллектив огранизовал проект Zool.

log
EAC extraction logfile from 24. July 2009, 7:23 for CD
Moahni Moahna / Why

Used drive : _NEC DVD_RW ND-3500AG Adapter: 0 ID: 2
Read mode : Secure with NO C2, accurate stream, disable cache
Read offset correction : 48
Overread into Lead-In and Lead-Out : No

Used output format : Internal WAV Routines
44.100 Hz; 16 Bit; Stereo

Other options :
Fill up missing offset samples with silence : Yes
Delete leading and trailing silent blocks : No
Installed external ASPI interface


Range status and errors
Selected range
Filename E:\spiralarch\Moahni Moahna - Why.wav

Peak level 99.9 %
Range quality 100.0 %
CRC AB86A2BB
Copy OK

No errors occured

End of status report


cue
REM GENRE Metal
REM DATE 1997
REM DISCID 9309E20B
REM COMMENT "ExactAudioCopy v0.95b4"
PERFORMER "Moahni Moahna"
TITLE "Why"
FILE "Moahni Moahna - Why.wav" WAVE
TRACK 01 AUDIO
TITLE "Tales Of Xet Sof"
PERFORMER "Moahni Moahna"
INDEX 01 00:00:00
TRACK 02 AUDIO
TITLE "They Were Never Even Meant To Be"
PERFORMER "Moahni Moahna"
INDEX 00 03:11:10
INDEX 01 03:12:15
TRACK 03 AUDIO
TITLE "King Kong Song"
PERFORMER "Moahni Moahna"
INDEX 00 07:14:19
INDEX 01 07:14:20
TRACK 04 AUDIO
TITLE "The Melter Of Ice"
PERFORMER "Moahni Moahna"
INDEX 00 10:06:05
INDEX 01 10:07:70
TRACK 05 AUDIO
TITLE "Radio's To Blame"
PERFORMER "Moahni Moahna"
INDEX 01 14:20:50
TRACK 06 AUDIO
TITLE "Don't Try This At Home!"
PERFORMER "Moahni Moahna"
INDEX 00 17:50:15
INDEX 01 17:52:15
TRACK 07 AUDIO
TITLE "The Past"
PERFORMER "Moahni Moahna"
INDEX 00 22:18:05
INDEX 01 22:19:72
TRACK 08 AUDIO
TITLE "Bring Us Back"
PERFORMER "Moahni Moahna"
INDEX 00 26:24:22
INDEX 01 26:25:42
TRACK 09 AUDIO
TITLE "I Lost It All"
PERFORMER "Moahni Moahna"
INDEX 00 29:17:10
INDEX 01 29:18:40
TRACK 10 AUDIO
TITLE "Angtoria"
PERFORMER "Moahni Moahna"
INDEX 00 32:15:22
INDEX 01 32:20:02
TRACK 11 AUDIO
TITLE "Why"
PERFORMER "Moahni Moahna"
INDEX 00 40:31:02
INDEX 01 41:28:25

_________________


Top
 Profile E-mail  
 
Display posts from previous:  Sort by  
Post new topic Reply to topic  [ 4 posts ] 

All times are UTC + 3 hours


Who is online

Users browsing this forum: No registered users and 1 guest


You cannot post new topics in this forum
You cannot reply to topics in this forum
You cannot edit your posts in this forum
You cannot delete your posts in this forum
You cannot post attachments in this forum

Search for:
Яндекс.Метрика
cron
Powered by phpBB © 2000, 2002, 2005, 2007 phpBB Group