\m/ 80's metal \m/

Информационно-аналитический форум "80 см пыли" (In Search We Trust) "У нас никто никуда не спешит"
Me For You - http://me-4u.com
It is currently 15 Nov 2018

All times are UTC + 3 hours

Spoiler
Chat - temporary registration for foreign users (please leave your application here)







Post new topic Reply to topic  [ 12 posts ] 
Author Message
 
PostPosted: 16 Mar 2009 
Труъ
User avatar
Joined: 26 Mar 2008
Posts: 127
Lоcаtion: СПб
Age: 29
Name: Илья
Morbid Scream - The Signal to Attack: 1986-1990 [FLAC]
Compilation

Image

Genre: Thrash Metal
Origin: USA
Size: 391 Мб

Tracks 1 & 2: From Demo I (1987)
Tracks 3 - 6: From Demo II (1988)
Track 7: Unreleased Studio Track
Tracks 8 - 12: Live 11/11/87
Tracks 13 - 15: Live 6/3/88
Tracks 16 - 19: Live 10/28/88


1. The Coming Of War
2. Face Of Death
3. Morbid Scream
4. Timeless Sleep
5. Fist In Your Face
6. Cries Of Sanity
7. Tragic Memories
8. Into Oblivion (Live)
9. Pray For The End (Live)
10. State Of Shock (Live)
11. March Of The Undead (Live)
12. When The Killing Begins (Live)
13. The Coming Of War (Live)
14. To The Gallows (Live)
15. Fist In Your Face (Live)
16. Face Of Death (Live)
17. Timeless Sleep (Live)
18. Tragic Memories (Live)
19. Morbid Scream (Live)

Рип потрековый, т.е. каждая песня - отдельный файл.

http://ifolder.ru/11081838
http://ifolder.ru/11081839
http://ifolder.ru/11081840
http://ifolder.ru/11081841

Автор рипа неизвестен, ибо на том ресурсе откуда я качал, видимо, не принято его указывать :pardon:

log
Quote:
Exact Audio Copy V0.99 prebeta 4 from 23. January 2008

EAC extraction logfile from 10. December 2008, 22:06

Morbid Scream / 1986-1990 - The Signal To Attack

Used drive : HP DVD Writer 1070r Adapter: 0 ID: 1

Read mode : Secure
Utilize accurate stream : Yes
Defeat audio cache : No
Make use of C2 pointers : Yes

Read offset correction : 6
Overread into Lead-In and Lead-Out : No
Fill up missing offset samples with silence : Yes
Delete leading and trailing silent blocks : No
Null samples used in CRC calculations : No
Used interface : Installed external ASPI interface
Gap handling : Appended to previous track

Used output format : Internal WAV Routines
Sample format : 44.100 Hz; 16 Bit; Stereo


TOC of the extracted CD

Track | Start | Length | Start sector | End sector
---------------------------------------------------------
1 | 0:00.00 | 5:28.00 | 0 | 24599
2 | 5:28.00 | 2:57.29 | 24600 | 37903
3 | 8:25.29 | 2:44.57 | 37904 | 50260
4 | 11:10.11 | 3:13.22 | 50261 | 64757
5 | 14:23.33 | 2:25.40 | 64758 | 75672
6 | 16:48.73 | 3:39.17 | 75673 | 92114
7 | 20:28.15 | 3:01.74 | 92115 | 105763
8 | 23:30.14 | 3:40.62 | 105764 | 122325
9 | 27:11.01 | 3:13.63 | 122326 | 136863
10 | 30:24.64 | 3:35.56 | 136864 | 153044
11 | 34:00.45 | 4:39.07 | 153045 | 173976
12 | 38:39.52 | 3:04.21 | 173977 | 187797
13 | 41:43.73 | 5:02.18 | 187798 | 210465
14 | 46:46.16 | 3:06.20 | 210466 | 224435
15 | 49:52.36 | 2:22.37 | 224436 | 235122
16 | 52:14.73 | 2:55.22 | 235123 | 248269
17 | 55:10.20 | 2:56.37 | 248270 | 261506
18 | 58:06.57 | 2:53.49 | 261507 | 274530
19 | 61:00.31 | 2:40.36 | 274531 | 286566


Track 1

Filename C:\Documents and Settings\Rob\Desktop\EAC Files\Morbid Scream - 1986-1990 - The Signal To Attack - 01 - The Coming Of War.wav

Pre-gap length 0:00:02.00

Peak level 100.0 %
Track quality 100.0 %
Test CRC A9CD85EA
Copy CRC A9CD85EA
Track not present in AccurateRip database
Copy OK

Track 2

Filename C:\Documents and Settings\Rob\Desktop\EAC Files\Morbid Scream - 1986-1990 - The Signal To Attack - 02 - Face Of Death.wav

Pre-gap length 0:00:02.03

Peak level 100.0 %
Track quality 100.0 %
Test CRC B6EE541B
Copy CRC B6EE541B
Track not present in AccurateRip database
Copy OK

Track 3

Filename C:\Documents and Settings\Rob\Desktop\EAC Files\Morbid Scream - 1986-1990 - The Signal To Attack - 03 - Morbid Scream.wav

Pre-gap length 0:00:02.04

Peak level 100.0 %
Track quality 100.0 %
Test CRC B2518DA2
Copy CRC B2518DA2
Track not present in AccurateRip database
Copy OK

Track 4

Filename C:\Documents and Settings\Rob\Desktop\EAC Files\Morbid Scream - 1986-1990 - The Signal To Attack - 04 - Timeless Sleep.wav

Pre-gap length 0:00:02.00

Peak level 100.0 %
Track quality 100.0 %
Test CRC E069F038
Copy CRC E069F038
Track not present in AccurateRip database
Copy OK

Track 5

Filename C:\Documents and Settings\Rob\Desktop\EAC Files\Morbid Scream - 1986-1990 - The Signal To Attack - 05 - Fist In Your Face.wav

Pre-gap length 0:00:02.00

Peak level 98.9 %
Track quality 100.0 %
Test CRC A3BF26E9
Copy CRC A3BF26E9
Track not present in AccurateRip database
Copy OK

Track 6

Filename C:\Documents and Settings\Rob\Desktop\EAC Files\Morbid Scream - 1986-1990 - The Signal To Attack - 06 - Cries Of Sanity.wav

Pre-gap length 0:00:02.00

Peak level 99.7 %
Track quality 100.0 %
Test CRC 8000EA71
Copy CRC 8000EA71
Track not present in AccurateRip database
Copy OK

Track 7

Filename C:\Documents and Settings\Rob\Desktop\EAC Files\Morbid Scream - 1986-1990 - The Signal To Attack - 07 - Tragic Memories.wav

Peak level 100.0 %
Track quality 99.8 %
Test CRC 35A8DD65
Copy CRC 35A8DD65
Track not present in AccurateRip database
Copy OK

Track 8

Filename C:\Documents and Settings\Rob\Desktop\EAC Files\Morbid Scream - 1986-1990 - The Signal To Attack - 08 - Into Oblivion (Live).wav

Pre-gap length 0:00:02.00

Peak level 88.1 %
Track quality 100.0 %
Test CRC 64C3374F
Copy CRC 64C3374F
Track not present in AccurateRip database
Copy OK

Track 9

Filename C:\Documents and Settings\Rob\Desktop\EAC Files\Morbid Scream - 1986-1990 - The Signal To Attack - 09 - Pray For The End (Live).wav

Pre-gap length 0:00:02.28

Peak level 83.7 %
Track quality 100.0 %
Test CRC 16690AAD
Copy CRC 16690AAD
Track not present in AccurateRip database
Copy OK

Track 10

Filename C:\Documents and Settings\Rob\Desktop\EAC Files\Morbid Scream - 1986-1990 - The Signal To Attack - 10 - State Of Shock (Live).wav

Pre-gap length 0:00:02.22

Peak level 82.8 %
Track quality 100.0 %
Test CRC 8D9CD572
Copy CRC 8D9CD572
Track not present in AccurateRip database
Copy OK

Track 11

Filename C:\Documents and Settings\Rob\Desktop\EAC Files\Morbid Scream - 1986-1990 - The Signal To Attack - 11 - March Of The Undead (Live).wav

Pre-gap length 0:00:02.13

Peak level 89.3 %
Track quality 100.0 %
Test CRC CBC492A0
Copy CRC CBC492A0
Track not present in AccurateRip database
Copy OK

Track 12

Filename C:\Documents and Settings\Rob\Desktop\EAC Files\Morbid Scream - 1986-1990 - The Signal To Attack - 12 - When The Killing Begins (Live).wav

Pre-gap length 0:00:02.14

Peak level 90.4 %
Track quality 100.0 %
Test CRC 13C939E5
Copy CRC 13C939E5
Track not present in AccurateRip database
Copy OK

Track 13

Filename C:\Documents and Settings\Rob\Desktop\EAC Files\Morbid Scream - 1986-1990 - The Signal To Attack - 13 - The Coming Of War (Live).wav

Peak level 90.1 %
Track quality 100.0 %
Test CRC 40144DE1
Copy CRC 40144DE1
Track not present in AccurateRip database
Copy OK

Track 14

Filename C:\Documents and Settings\Rob\Desktop\EAC Files\Morbid Scream - 1986-1990 - The Signal To Attack - 14 - To The Gallows (Live).wav

Pre-gap length 0:00:02.25

Peak level 81.7 %
Track quality 100.0 %
Test CRC 9CB8CA0F
Copy CRC 9CB8CA0F
Track not present in AccurateRip database
Copy OK

Track 15

Filename C:\Documents and Settings\Rob\Desktop\EAC Files\Morbid Scream - 1986-1990 - The Signal To Attack - 15 - Fist In Your Face (Live).wav

Pre-gap length 0:00:02.15

Peak level 81.4 %
Track quality 100.0 %
Test CRC 4B766E80
Copy CRC 4B766E80
Track not present in AccurateRip database
Copy OK

Track 16

Filename C:\Documents and Settings\Rob\Desktop\EAC Files\Morbid Scream - 1986-1990 - The Signal To Attack - 16 - Face Of Death (Live).wav

Pre-gap length 0:00:02.00

Peak level 99.7 %
Track quality 99.8 %
Test CRC 7CAB40AC
Copy CRC 7CAB40AC
Track not present in AccurateRip database
Copy OK

Track 17

Filename C:\Documents and Settings\Rob\Desktop\EAC Files\Morbid Scream - 1986-1990 - The Signal To Attack - 17 - Timeless Sleep (Live).wav

Peak level 99.7 %
Track quality 100.0 %
Test CRC C8A86662
Copy CRC C8A86662
Track not present in AccurateRip database
Copy OK

Track 18

Filename C:\Documents and Settings\Rob\Desktop\EAC Files\Morbid Scream - 1986-1990 - The Signal To Attack - 18 - Tragic Memories (Live).wav

Pre-gap length 0:00:02.22

Peak level 99.7 %
Track quality 100.0 %
Test CRC 2B5E8C87
Copy CRC 2B5E8C87
Track not present in AccurateRip database
Copy OK

Track 19

Filename C:\Documents and Settings\Rob\Desktop\EAC Files\Morbid Scream - 1986-1990 - The Signal To Attack - 19 - Morbid Scream (Live).wav

Pre-gap length 0:00:02.00

Peak level 99.7 %
Track quality 100.0 %
Test CRC 1E257E2B
Copy CRC 1E257E2B
Track not present in AccurateRip database
Copy OK


None of the tracks are present in the AccurateRip database

No errors occurred

End of status report


_________________
Hunting, seeking, finding, destroying - die.
Praying, pleading, cannot wait - for death.
© Coroner


Last edited by nomercy2all on 17 Mar 2009, edited 1 time in total.

Top
 Profile  
 
 
PostPosted: 17 Mar 2009 
Хиппей (support team)
User avatar
Joined: 30 Jul 2007
Posts: 108005
Lоcаtion: Киев (Kyiv, UA)
Age: 45
Name: Andrey
Роб автор. Ммм... рип потрековый :oops:
nomercy2all, спасибо :true:


Top
 Profile E-mail  
 
 
PostPosted: 17 Mar 2009 
Труъ
User avatar
Joined: 26 Mar 2008
Posts: 127
Lоcаtion: СПб
Age: 29
Name: Илья
Scatterbrain wrote:
Роб автор.

Это ты знал или как-то вычислил? :oops:

_________________
Hunting, seeking, finding, destroying - die.
Praying, pleading, cannot wait - for death.
© Coroner


Top
 Profile  
 
 
PostPosted: 17 Mar 2009 
Хиппей (support team)
User avatar
Joined: 30 Jul 2007
Posts: 108005
Lоcаtion: Киев (Kyiv, UA)
Age: 45
Name: Andrey
В лог посмотрел :al:


Top
 Profile E-mail  
 
 
PostPosted: 22 Mar 2009 
udo
User avatar
Joined: 01 Mar 2008
Posts: 2343
Lоcаtion: Краснодар
Age: 47
Name: РОМАН
Уважаемый nomercy2all
если не сложно в след раз указывай ссылки по порядку - а то я елки палки 3 и 4 части три скачал


Top
 Profile E-mail  
 
 
PostPosted: 22 Mar 2009 
Пионэръ
Joined: 05 Jan 2009
Posts: 27
Lоcаtion: SPb
Age: 51
Name: Макс
Автор рипа Biomech. Я качал с первоисточника, а потом уже ты с меня.

_________________
Thrash & Death Metal releaser


Top
 Profile  
 
 
PostPosted: 22 Mar 2009 
Труъ
User avatar
Joined: 26 Mar 2008
Posts: 127
Lоcаtion: СПб
Age: 29
Name: Илья
odu, да, прошу прощения. Напутал слегка.
imaevil, с тебя это откуда?

_________________
Hunting, seeking, finding, destroying - die.
Praying, pleading, cannot wait - for death.
© Coroner


Top
 Profile  
 
 
PostPosted: 22 Mar 2009 
Прокъмитолист
User avatar
Joined: 12 Aug 2007
Posts: 6503
Lоcаtion: Санктъ-Петербуркъ
Age: 51
Name: Олекъ
nomercy2all wrote:
imaevil, с тебя это откуда?

я так полагаю, что с headbangers.nnm.ru, где его Макс (imaevil) выкладывал - я сам оттуда качал :roll:
док хэдбэнгерз, кстати, числится в друзьях у этого форума, ссылка на главной есть :true:

_________________
прокъметол - это музыко, от которово есть прок (ы)


Top
 Profile  
 
 
PostPosted: 22 Mar 2009 
Пионэръ
Joined: 05 Jan 2009
Posts: 27
Lоcаtion: SPb
Age: 51
Name: Макс
nomercy2all
Если б ты качал не с меня, то у тебя был бы NFO-файл, в котором указан и автор рипа, и др. информация. У меня он есть, но я его не клал в архив, т.к. у нас это не является обязательным условием. Правда, последнее время стали уже писать, что релиз, к примеру, MMT или торрентс.ру.

_________________
Thrash & Death Metal releaser


Top
 Profile  
 
 
PostPosted: 22 Mar 2009 
Труъ
User avatar
Joined: 26 Mar 2008
Posts: 127
Lоcаtion: СПб
Age: 29
Name: Илья
Я подключен к headbangers, но качал не оттуда. Более того, прежде чем сюда запостить, искал именно на хэдбэнгерс этот альбом, но видимо проглядел :pardon: Если бы там нашел, то и сюда бы не стал постить.

_________________
Hunting, seeking, finding, destroying - die.
Praying, pleading, cannot wait - for death.
© Coroner


Top
 Profile  
 
 
PostPosted: 23 Mar 2009 
Пионэръ
Joined: 05 Jan 2009
Posts: 27
Lоcаtion: SPb
Age: 51
Name: Макс
nomercy2all wrote:
Я подключен к headbangers, но качал не оттуда. Более того, прежде чем сюда запостить, искал именно на хэдбэнгерс этот альбом, но видимо проглядел :pardon: Если бы там нашел, то и сюда бы не стал постить.

Да все в порядке. Значит ты скачал с другого источника, я знаю несколько мест где выкладывают релизы с headbangers. У меня к тебе никаких претензий нет по этому поводу. *DRINK*

_________________
Thrash & Death Metal releaser


Top
 Profile  
 
 
PostPosted: 07 Jul 2009 
Прокъмитолист
User avatar
Joined: 12 Aug 2007
Posts: 6503
Lоcаtion: Санктъ-Петербуркъ
Age: 51
Name: Олекъ
сейчас как раз слушаю эту сборку. и кагбе немного прифигел, когда фронтмен обьявил песню "March Of The Undead" как "Марш Смерти" :shok:
полез даже специально на архивы с целью уточнить национальность команды. неа, все чистокровные техасские ковбойцы :vic:

_________________
прокъметол - это музыко, от которово есть прок (ы)


Top
 Profile  
 
Display posts from previous:  Sort by  
Post new topic Reply to topic  [ 12 posts ] 

All times are UTC + 3 hours


Who is online

Users browsing this forum: No registered users and 4 guests


You cannot post new topics in this forum
You cannot reply to topics in this forum
You cannot edit your posts in this forum
You cannot delete your posts in this forum
You cannot post attachments in this forum

Search for:
Яндекс.Метрика
Powered by phpBB © 2000, 2002, 2005, 2007 phpBB Group