\m/ 80's metal \m/

Информационно-аналитический форум "80 см пыли" (In Search We Trust) "У нас никто никуда не спешит"
Me For You - http://me-4u.com
It is currently 24 Sep 2018

All times are UTC + 3 hours

Spoiler
Chat - temporary registration for foreign users (please leave your application here)







Post new topic Reply to topic  [ 171 posts ]  Go to page Previous  1, 2, 3, 4, 5, 6 ... 9  Next
Author Message
 
PostPosted: 31 Jul 2010 
Хиппей (support team)
User avatar
Joined: 30 Jul 2007
Posts: 106542
Lоcаtion: Киев (Kyiv, UA)
Age: 45
Name: Andrey
Хы, перерывал тут имэйлы и письма и нашел у себя такое вот письмецо :crazy: (отправлял четыре года назад польской пиратской конторе, чтобы делали более качественные релизы, вот ответ):

| +
Дата: 25.05.06 22:53
От кого: Dragonight Agency <bart.gabriel@dragonight.de>
Кому: reyals90@yandex.ru
Тема: Re: MP - Downloads

koi8 | win | dos | utf-8 | mac

reyals90 wrote:
1986 - Bursting Out (The Beast Became Human) - 192 kbps CBR
http://www.megaupload.com/?d=88X9Y9AD
1987 - Get It Now [192]
http://www.axifile.com/?5720157
1988 - Showdown [VBR]
http://www.axifile.com/?9825890
1992 - Melting Point [VBR]
http://www.megaupload.com/?d=9IIN37KE

These downloads are ILLEGAL please delete them!!!!!! teh band is
plannign next official re-relases.

Metallic regards
/ Bart Gabriel


_____________________________________________________________________

DRAGONIGHT AGENCY [ home of heavy metal - http://www.dragonight.de ]
c/o Bart Gabriel, Skr. Poczt. 1306, 40-001 Katowice 1, Poland

exclusive & additional management: CRYSTAL VIPER, ELIXIR, LONEWOLF,
METALUCIFER, MP, OVERDRIVE, SALEM'S WYCH & STEELPREACHER.

additional promotion: ATTACKER, DEEP SWITCH, DENIM AND LEATHER,
EMERALD, KAT, METAL INQUISITOR, METAL MIRROR, PREYER, SABBAT,
SOLITAIRE, VALKYRIE'S CRY & VIRGIN STEELE.

official webmastering: ANGUS, CIRITH UNGOL, CRYSTAL VIPER, GORGON,
LONEWOLF, METALUCIFER, MP, VALKYRIE'S CRY & VORTEX.


Самое смешное, что две ссылки на Мегу еще живы. Мож кому пригодятся :dance:

_________________


Top
 Profile E-mail  
 
 
PostPosted: 23 Oct 2011 
Хиппей (support team)
User avatar
Joined: 30 Jul 2007
Posts: 106542
Lоcаtion: Киев (Kyiv, UA)
Age: 45
Name: Andrey
MP (Metal Priest(s) - 2006 - Bursting Out - The Beast Became Human - Get It Now (remastered) [flac]

Attachment:
folder_1.jpg
folder_1.jpg [ 39.27 KiB | Viewed 1209 times ]

Attachment:
folder_2.jpg
folder_2.jpg [ 39.88 KiB | Viewed 1207 times ]


Genre: Heavy Metal
Location: Germany
Format: flac+cue+log+scans
Size: 666 Mb


01. Bursting Out [0:03:28.39]
02. Mp (Metal Priests) [0:02:44.49]
03. Startide Rising [0:03:54.04]
04. Pyromania [0:03:10.67]
05. Out For Love [0:04:18.03]
06. On The Loose Again [0:03:39.67]
07. Fight For For Your Life [0:04:22.45]
08. Hellglow [0:02:00.36]
09. No More Heroes [0:02:35.62]
10. World Of Tears [0:04:38.03]
11. Not For The Innocent [0:03:23.26]
12. Claws From The Night [0:03:42.64]
13. Rocktober Blood [0:04:46.09]
14. Dont Ask His Name (Lohengrin) [0:03:24.03]
15. Lion In A Cage [0:04:39.63]
16. Get It Now [0:04:37.63]
17. Cruel To The Heart [0:05:58.27]
18. Hawk Of May [0:03:21.47]
19. Never Trust A Wo(Man) [0:04:40.13]
20. Slow Down [0:01:16.34]


За рип благодарности Igor191965 from MMT & MetalMass :thanx:

Ссылка под катом :dance:

log
EAC extraction logfile from 11. July 2008, 0:15 for CD
MP / Bursting Out - The Beast Became Human - Get It Now (Remastered)

Used drive : PIONEER DVD-RW DVR-112D Adapter: 0 ID: 0
Read mode : Secure with NO C2, accurate stream, disable cache
Read offset correction : 48
Overread into Lead-In and Lead-Out : No

Used output format : D:\Programs\MeTaLMaDNeSS.Pack.v2.0.-.Tutoriales.Lossless.(APE.&.FLAC)+.Programas.[Spanish.&.English]\eac095pb5\FLAC.EXE (User Defined Encoder)
32 kBit/s
Additional command line options : -3 -V -T "artist=%a" -T "title=%t" -T "album=%g" -T "date=%y" -T "tracknumber=%n" -T "genre=%m" -T "comment=EAC 0.95beta4 / FLAC 1.1.2 q6" %s
Use compression offset : 0

Other options :
Fill up missing offset samples with silence : Yes
Delete leading and trailing silent blocks : No
Installed external ASPI interface


Range status and errors
Selected range
Filename D:\Recorded From Vinyl & EAC Files\#My Releases\MP - Bursting Out - The Beast Became Human - Get It Now.flac.wav

Peak level 100.0 %
Range quality 100.0 %
CRC 914E8296
Copy OK

No errors occured

End of status report


cue
PERFORMER "MP"
TITLE "Bursting Out - The Beast Became Human - Get It Now (Remastered)"
FILE "MP - Bursting Out - The Beast Became Human - Get It Now.flac" WAVE
TRACK 01 AUDIO
TITLE "Bursting Out"
PERFORMER "MP"
INDEX 01 00:00:00
TRACK 02 AUDIO
TITLE "Mp (Metal Priests)"
PERFORMER "MP"
INDEX 01 03:28:39
TRACK 03 AUDIO
TITLE "Startide Rising"
PERFORMER "MP"
INDEX 01 06:13:13
TRACK 04 AUDIO
TITLE "Pyromania"
PERFORMER "MP"
INDEX 01 10:07:17
TRACK 05 AUDIO
TITLE "Out For Love"
PERFORMER "MP"
INDEX 01 13:18:09
TRACK 06 AUDIO
TITLE "On The Loose Again"
PERFORMER "MP"
INDEX 01 17:36:12
TRACK 07 AUDIO
TITLE "Fight For For Your Life"
PERFORMER "MP"
INDEX 01 21:16:04
TRACK 08 AUDIO
TITLE "Hellglow"
PERFORMER "MP"
INDEX 01 25:38:49
TRACK 09 AUDIO
TITLE "No More Heroes"
PERFORMER "MP"
INDEX 01 27:39:10
TRACK 10 AUDIO
TITLE "World Of Tears"
PERFORMER "MP"
INDEX 01 30:14:72
TRACK 11 AUDIO
TITLE "Not For The Innocent"
PERFORMER "MP"
INDEX 01 34:53:00
TRACK 12 AUDIO
TITLE "Claws From The Night"
PERFORMER "MP"
INDEX 01 38:16:26
TRACK 13 AUDIO
TITLE "Rocktober Blood"
PERFORMER "MP"
INDEX 01 41:59:15
TRACK 14 AUDIO
TITLE "Dont Ask His Name (Lohengrin)"
PERFORMER "MP"
INDEX 01 46:45:24
TRACK 15 AUDIO
TITLE "Lion In A Cage"
PERFORMER "MP"
INDEX 01 50:09:27
TRACK 16 AUDIO
TITLE "Get It Now"
PERFORMER "MP"
INDEX 01 54:49:15
TRACK 17 AUDIO
TITLE "Cruel To The Heart"
PERFORMER "MP"
INDEX 01 59:27:03
TRACK 18 AUDIO
TITLE "Hawk Of May"
PERFORMER "MP"
INDEX 01 65:25:30
TRACK 19 AUDIO
TITLE "Never Trust A Wo(Man)"
PERFORMER "MP"
INDEX 01 68:47:02
TRACK 20 AUDIO
TITLE "Slow Down"
PERFORMER "MP"
INDEX 01 73:27:15


spectrum
Attachment:
spectrum.jpg
spectrum.jpg [ 884.04 KiB | Viewed 82 times ]


MultiUp l Narod

_________________


Top
 Profile E-mail  
 
 
PostPosted: 23 Oct 2011 
дядя Миша
User avatar
Joined: 17 Oct 2008
Posts: 3055
Lоcаtion: USSR
Age: 56
Name: Khy
сканы там все?


Top
 Profile  
 
 
PostPosted: 23 Oct 2011 
Хиппей (support team)
User avatar
Joined: 30 Jul 2007
Posts: 106542
Lоcаtion: Киев (Kyiv, UA)
Age: 45
Name: Andrey
VARVAAR wrote:
сканы там все?

:nyam:

_________________


Top
 Profile E-mail  
 
 
PostPosted: 23 Oct 2011 
дядя Миша
User avatar
Joined: 17 Oct 2008
Posts: 3055
Lоcаtion: USSR
Age: 56
Name: Khy
Не , я твоего лося подожду,от спидека.... Братва я думаю тоже.


Top
 Profile  
 
 
PostPosted: 23 Oct 2011 
Хиппей (support team)
User avatar
Joined: 30 Jul 2007
Posts: 106542
Lоcаtion: Киев (Kyiv, UA)
Age: 45
Name: Andrey
Миш, ты про круговорот копий дисков в природе что-то слышал?.. :oops:

_________________


Top
 Profile E-mail  
 
 
PostPosted: 23 Oct 2011 
Хиппей (support team)
User avatar
Joined: 30 Jul 2007
Posts: 106542
Lоcаtion: Киев (Kyiv, UA)
Age: 45
Name: Andrey
Ну вы даёте... :shok:
За полдня 52 раза уже архив скачан. Неужто так все не любят или не умеют качать с торрентов? :starz:

_________________


Top
 Profile E-mail  
 
 
PostPosted: 24 Oct 2011 
дядя Миша
User avatar
Joined: 17 Oct 2008
Posts: 3055
Lоcаtion: USSR
Age: 56
Name: Khy
Остальные ждут рип ( лося +все сканы) от спидека+скэйттербрэйна..


Top
 Profile  
 
 
PostPosted: 24 Oct 2011 
Хиппей (support team)
User avatar
Joined: 30 Jul 2007
Posts: 106542
Lоcаtion: Киев (Kyiv, UA)
Age: 45
Name: Andrey
Миш, тебе нужны сканы, сделанные "на скорую руку"? :shok:
А смысл?
Игорь свои прекрасно сделал.

Кстати, у Спидика еще два десятка дисков осталось этого альбома. Цену сам у него узнай, если вдруг нужен этот релиз в привычном и первичном виде.
У Барта, кстати, их давно нет.


А вообще, лучше попробуй подать на меня в суд :cow: Причин - валом :dance:
Главное не запутайся в судах. Подавай маляву сразу в Гаагский, и в суд ООН.

_________________


Top
 Profile E-mail  
 
 
PostPosted: 24 Oct 2011 
дядя Миша
User avatar
Joined: 17 Oct 2008
Posts: 3055
Lоcаtion: USSR
Age: 56
Name: Khy
Не , я в Лiвiв напишу, шоб тебя к ответу призвали , за... :true:
Если бы мне нужно было купить этот CD,то конечно бы уже купил.


Top
 Profile  
 
 
PostPosted: 24 Oct 2011 
Хиппей (support team)
User avatar
Joined: 30 Jul 2007
Posts: 106542
Lоcаtion: Киев (Kyiv, UA)
Age: 45
Name: Andrey
VARVAAR wrote:
Если бы мне нужно было купить этот CD,то конечно бы уже купил.

Погодь, тогда зачем тебе нужны сканы и именно от Спидика? :starz:

Всё упирается в вопрос - купил я чего-либо у него, или нет?

_________________


Top
 Profile E-mail  
 
 
PostPosted: 25 Oct 2011 
Хиппей (support team)
User avatar
Joined: 30 Jul 2007
Posts: 106542
Lоcаtion: Киев (Kyiv, UA)
Age: 45
Name: Andrey
MP - 1999 - Bursting Out - Live & Loud [flac]

Attachment:
front.jpg
front.jpg [ 1.45 MiB | Viewed 97 times ]

Attachment:
back.jpg
back.jpg [ 809.08 KiB | Viewed 88 times ]


Genre: Heavy Metal
Location: Germany
Format: flac+cue+log+covers (front+back)
Size: 328 Mb



Line-up:

Thomas Zeller - Vocals
Andy Wolk - Guitars
Wolfgang Nübling - Bass
Klaus Sperling - Drums

    1. Bursting Out - 03:40
    2. Driver - 04:33
    3. Hawk Of May - 03:56
    4. Not For The Innocent - 03:32
    5. Get It Now - 04:43
    6. RockTober Blood - 05:08
    7. Out For Love - 05:08
    8. Claws From The Might - 03:47
    9. Fight For Live - 04:27
    10. Feel The Heat - 04:04

    TPT: 43:01

MultiUp l Narod

Концерт замечательный, качество звука отменное.
Но... те, кто не слышал живые выступления группы будут явно немного разочарованы вокалистом. Он здесь поёт естественным голосом, часто попискивая, и фирменной бархатной хрипотцы вряд ли услышите :pardon:
В общем, еще один показательный момент, как в студии можно сделать неповторимое звучание (тембр) голоса :cow:
Но - еще раз повторюсь - музыканты здесь на высоте. Умнички :true:
И еще более естественно, что вживую и эта группа играет быстрее, чем на студийных работах.

8/10

Рип любезно предоставил Михаил Speedyk :thanx:

log
Отчёт EAC об извлечении, выполненном 24. октября 2011, 18:57 для диска:
Unknown Artist / Unknown Title

Дисковод: ASUS DRW-1814BL Adapter: 3 ID: 0
Режим чтения: Достоверный (C2: нет, Точный поток: да, Отключение кэша: да)
Коррекция смещения при чтении: 6
Способность читать области Lead-in и Lead-out : Нет

Выходной формат: Внутренние WAV-операции
44.100 Гц; 16 бит; стерео

Другие параметры:
Заполнение пропущенных сэмплов тишиной : Да
Удаление блоков с тишиной в начале и конце : Нет
Установленный внешний ASPI-интерфейс


Характеристики диапазона извлечения и сообщения об ошибках
Выбранный диапазон
Имя файла C:\Documents and Settings\Administrator\Desktop\MP\MP - Bursting out.wav

Пиковый уровень 100.0 %
Качество диапазона 100.0 %
CRC 38B1295C
Копирование... OK

Ошибок не произошло

Конец отчёта


cue
REM DISCID 810A150A
REM COMMENT "ExactAudioCopy v0.95b4"
PERFORMER "MP"
TITLE "MP - Bursting Out - Live & Loud.flac"
FILE "MP - Bursting Out - Live & Loud.flac" WAVE
TRACK 01 AUDIO
TITLE "Bursting Out - Live & Loud"
PERFORMER "MP"
INDEX 01 00:00:00
TRACK 02 AUDIO
TITLE "Driver"
PERFORMER "MP"
INDEX 01 03:40:12
TRACK 03 AUDIO
TITLE "Hawk Of May"
PERFORMER "MP"
INDEX 01 08:14:08
TRACK 04 AUDIO
TITLE "Not For The Innocent"
PERFORMER "MP"
INDEX 01 12:10:73
TRACK 05 AUDIO
TITLE "Get It Now"
PERFORMER "MP"
INDEX 01 15:43:02
TRACK 06 AUDIO
TITLE "RockTober Blood"
PERFORMER "MP"
INDEX 01 20:26:06
TRACK 07 AUDIO
TITLE "Out For Love"
PERFORMER "MP"
INDEX 01 25:34:12
TRACK 08 AUDIO
TITLE "Claws From The Might"
PERFORMER "MP"
INDEX 01 30:42:16
TRACK 09 AUDIO
TITLE "Fight For Live"
PERFORMER "MP"
INDEX 01 34:29:14
TRACK 10 AUDIO
TITLE "Feel The Heat"
PERFORMER "MP"
INDEX 01 38:57:04


spectrum
Attachment:
spectrum.png
spectrum.png [ 1.36 MiB | Viewed 87 times ]

_________________


Top
 Profile E-mail  
 
 
PostPosted: 25 Oct 2011 
хард н хэвщик (support team)
User avatar
Joined: 02 Jun 2008
Posts: 16880
Lоcаtion: Н.Новгород
Age: 31
Name: Артем
Scatterbrain wrote:
Рип любезно предоставил Михаил Speedyk :thanx:

любезно было бы , если бы бесплатно :vic:


Top
 Profile  
 
 
PostPosted: 25 Oct 2011 
Хиппей (support team)
User avatar
Joined: 30 Jul 2007
Posts: 106542
Lоcаtion: Киев (Kyiv, UA)
Age: 45
Name: Andrey
А оно так и есть. Это бонус :dance:

Да, кстати, можно предоставить бесплатно, но не любезно :pardon:
То есть, формулировка фразы у меня правильная в любых случаях.

_________________


Top
 Profile E-mail  
 
 
PostPosted: 25 Oct 2011 
хард н хэвщик (support team)
User avatar
Joined: 02 Jun 2008
Posts: 16880
Lоcаtion: Н.Новгород
Age: 31
Name: Артем
но если было предоставлено за деньги, то это ни в каком месте не любезно. :pardon:


Top
 Profile  
 
 
PostPosted: 25 Oct 2011 
дядя Миша
User avatar
Joined: 17 Oct 2008
Posts: 3055
Lоcаtion: USSR
Age: 56
Name: Khy
Андрюха! Дай пять! :true: :true:Из списка крутых халявщиков ты вычеркнут.!


Top
 Profile  
 
 
PostPosted: 25 Oct 2011 
Хиппей (support team)
User avatar
Joined: 30 Jul 2007
Posts: 106542
Lоcаtion: Киев (Kyiv, UA)
Age: 45
Name: Andrey
McKagan wrote:
но если было предоставлено за деньги, то это ни в каком месте не любезно.

В смысле?
Какое отношение имеют деньги к любезности или нелюбезности? :shok:

Quote:
Значение слова любезность
Новый толково-словообразовательный словарь русского языка. Автор Т. Ф. Ефремова.
любезность ж. 1) Отвлеч. сущ. по знач. прил.: любезный (3*1). 2) а) Фраза, содержащая нечто приятное для того, кому она предназначена; комплимент. б) Любезное одолжение, услуга.
Орфографический словарь
любезность люб`езность, -и
Толковый словарь под ред. C. И. Ожегова и Н.Ю.Шведовой
ЛЮБЕЗНОСТЬ, -и, ж. 1. см. любезный. 2. Приветливые и учтивые слова,обходительное и приятное обращение. Наговорить любезностей. Оказать кому-н.л. Не откажите в любезности (вежливое обращение с просьбой).
Толковый словарь русского языка под ред. Д. Н. Ушакова
ЛЮБЕЗНОСТЬ любезности, ж. 1. только ед. Свойство любезного человека. Он отличался необыкновенной любезностью. 2. Фраза, содержащая нечто приятное для того, кому сказана; комплимент. Говорить любезности. || Любезное одолжение, услуга. Это простая любезность с его стороны. Оказать кому-н. любезность


VARVAAR wrote:
Из списка крутых халявщиков ты вычеркнут.!

Да ну :shok:
Ну дык... умею. Теперь мне можно собой еще больше гордиться? :nunu:


Кстати, так понимаю, что ссылка на альбом никому и не нужна, кроме Серёги =)

_________________


Top
 Profile E-mail  
 
 
PostPosted: 25 Oct 2011 
хард н хэвщик (support team)
User avatar
Joined: 02 Jun 2008
Posts: 16880
Lоcаtion: Н.Новгород
Age: 31
Name: Артем
Scatterbrain wrote:
Какое отношение имеют деньги к любезности или нелюбезности? :shok:

проехали , неважно :pardon:


Top
 Profile  
 
 
PostPosted: 25 Oct 2011 
А может смените мне статус?..
User avatar
Joined: 24 Dec 2008
Posts: 615
Age: 44
Name: Дмитрий
Scatterbrain wrote:
Кстати, так понимаю, что ссылка на альбом никому и не нужна, кроме Серёги

Я бы от лосика не отказался бы... :oops:


Top
 Profile  
 
 
PostPosted: 25 Oct 2011 
Хиппей (support team)
User avatar
Joined: 30 Jul 2007
Posts: 106542
Lоcаtion: Киев (Kyiv, UA)
Age: 45
Name: Andrey
А, да ссылка будет. Сканов просто еще не получил.

McKagan wrote:
проехали , неважно :pardon:

Ну как это? :crazy: Для меня очень даже принципиально важно.
Примерно как же, как для Миши и Серёги - куплю я таки лося или нет :dance:

_________________


Top
 Profile E-mail  
 
Display posts from previous:  Sort by  
Post new topic Reply to topic  [ 171 posts ]  Go to page Previous  1, 2, 3, 4, 5, 6 ... 9  Next

All times are UTC + 3 hours


Who is online

Users browsing this forum: No registered users and 2 guests


You cannot post new topics in this forum
You cannot reply to topics in this forum
You cannot edit your posts in this forum
You cannot delete your posts in this forum
You cannot post attachments in this forum

Search for:
Яндекс.Метрика
Powered by phpBB © 2000, 2002, 2005, 2007 phpBB Group