\m/ 80's metal \m/

Информационно-аналитический форум "80 см пыли" (In Search We Trust) "У нас никто никуда не спешит"
Me For You - http://me-4u.com
It is currently 24 Sep 2018

All times are UTC + 3 hours

Spoiler
Chat - temporary registration for foreign users (please leave your application here)







Post new topic Reply to topic  [ 38 posts ]  Go to page Previous  1, 2
Author Message
 
PostPosted: 28 Feb 2009 
А может смените мне статус?..
User avatar
Joined: 02 Feb 2009
Posts: 997
Lоcаtion: из Тулы
Age: 44
Name: Максим
не
голос не высокий
и не сильный
орут то не от того что сильный а наоборот недотягивает и переходит на ор

_________________
КМА


Top
 Profile  
 
 
PostPosted: 01 Mar 2009 
труъ антисионист
User avatar
Joined: 01 Aug 2007
Posts: 4541
Lоcаtion: Откуда и большинство из нас
Age: 37
Name: Дядя Вова
Scatterbrain
Короче отличный олдовый трешак, мне понравилось :true:

_________________
Image
Image


Top
 Profile  
 
 
PostPosted: 01 Mar 2009 
Работнечег
User avatar
Joined: 28 Aug 2007
Posts: 5409
Lоcаtion: г. Москва
Age: 29
Name: Дима
Glot wrote:
Scatterbrain
Короче отличный олдовый трешак, мне понравилось :true:

Имхо, не очень он олдовый.Вот 2007 года альбом, там олдскул по-моему, только уже не особо трэшак :oops:


Top
 Profile E-mail  
 
 
PostPosted: 01 Mar 2009 
Хиппей (support team)
User avatar
Joined: 30 Jul 2007
Posts: 106511
Lоcаtion: Киев (Kyiv, UA)
Age: 45
Name: Andrey
Умеете вы запутать :thanx:


Top
 Profile E-mail  
 
 
PostPosted: 01 Mar 2009 
труъ антисионист
User avatar
Joined: 01 Aug 2007
Posts: 4541
Lоcаtion: Откуда и большинство из нас
Age: 37
Name: Дядя Вова
Scatterbrain
А чего путать? Мне мало чего нравиться, так что можешь смело забирать! :true:

_________________
Image
Image


Top
 Profile  
 
 
PostPosted: 02 Mar 2009 
Прокъмитолист
User avatar
Joined: 12 Aug 2007
Posts: 6473
Lоcаtion: Санктъ-Петербуркъ
Age: 50
Name: Олекъ
спасибо, и я забрал :thanx:

_________________
прокъметол - это музыко, от которово есть прок (ы)


Top
 Profile  
 
 
PostPosted: 16 Apr 2009 
Труъ
User avatar
Joined: 05 Oct 2008
Posts: 194
Lоcаtion: Saint Petersburg
Age: 45
Name: Jesse
Пасиб!


Top
 Profile  
 
 
PostPosted: 20 Apr 2009 
10cm
User avatar
Joined: 26 Aug 2007
Posts: 93
Lоcаtion: Москва
Age: 46
Хз, по звуку они мне очень понравились: плотненько так укладывают, убедительно. А вот голос мимо (сугубо имхо разумеется): где-то всё-таки очень высоко от всей музыки и оченно противно орёт, поэтому в итоге всё вместе как-то ... как-то смешно, что ли, получается? Пел бы он всегда хотя бы как в припеве 4-ой песни: World Wide Mystery - опять же имхо, но было бы намного круче! :pardon:

_________________
how does it make you feel?


Top
 Profile  
 
 
PostPosted: 25 May 2009 
Mechanix
User avatar
Joined: 05 Sep 2007
Posts: 477
Lоcаtion: Ekaterinodar
Age: 45
Name: Alexey
Надо послухать, шо за зверюги такие, шпасибо! :true:

_________________
Image
Image


Top
 Profile  
 
 
PostPosted: 15 Nov 2013 
Генеральный thrasher
User avatar
Joined: 03 Oct 2008
Posts: 3450
Lоcаtion: Ханты-Мансийский АО
Age: 43
Name: Сергей
Image

Year:2003
Style:Thrash Metal
Country:Finland
Audio:Flac+Cue+Log+Scans
Size:299Mb
Source:my CD
Label:Verikauha Records

Line-Up:
Marco R. Järkkä - vocals
Sami Siekkinen - guitars
Ollari - bass
Aki Karppinen - drums
Late TT - guitars

Tracklist:
01. The Spirit Of Northern Brotherhood 03:18
02. Au Revoir 02:52
03. Last Steps Of Joe 02:59
04. World Wide Mistery 03:08
05. The Chosen People 02:03
06. Simply Simplicity 03:05
07. Invincibles 04:21
08. Victim Of Life 02:51
09. Nothing Starts From The Beginning 03:37
10. Embodiment Of Air 03:23
11. New Direction 03:45

"Log"
Exact Audio Copy V0.99 prebeta 5 from 4. May 2009

Отчёт EAC об извлечении, выполненном 26. октября 2013, 8:49

Maple Cross / Next Chapter

Дисковод: MATSHITADVD-RAM UJ8A0AS Adapter: 0 ID: 1

Режим чтения : Достоверность
Использование точного потока : Да
Отключение кэша аудио : Да
Использование указателей C2 : Нет

Коррекция смещения при чтении : 102
Способность читать области Lead-in и Lead-out : Нет
Заполнение пропущенных сэмплов тишиной : Да
Удаление блоков с тишиной в начале и конце : Нет
При вычислениях CRC использовались нулевые сэмплы : Да
Интерфейс : Встроенный Win32-интерфейс для Win NT/2000

Выходной формат : Пользовательский кодировщик
Выбранный битрейт : 1024 kBit/s
Качество : Высокий
Добавление ID3-тэга : Нет
Утилита сжатия : C:\Program Files\Exact Audio Copy\FLAC\FLAC.EXE
Дополнительные параметры : -6 -V -T "ARTIST=%a" -T "TITLE=%t" -T "ALBUM=%g" -T "DATE=%y" -T "TRACKNUMBER=%n" -T "GENRE=%m" -T "COMMENT=%e" %s -o %d


TOC извлечённого CD

Трек | Старт | Длительность | Начальный сектор | Конечный сектор
---------------------------------------------------------------------
1 | 0:00.00 | 3:20.61 | 0 | 15060
2 | 3:20.61 | 2:54.48 | 15061 | 28158
3 | 6:15.34 | 3:01.26 | 28159 | 41759
4 | 9:16.60 | 3:08.06 | 41760 | 55865
5 | 12:24.66 | 2:03.17 | 55866 | 65107
6 | 14:28.08 | 3:07.10 | 65108 | 79142
7 | 17:35.18 | 4:23.24 | 79143 | 98891
8 | 21:58.42 | 2:53.38 | 98892 | 111904
9 | 24:52.05 | 3:39.34 | 111905 | 128363
10 | 28:31.39 | 3:25.54 | 128364 | 143792
11 | 31:57.18 | 3:45.58 | 143793 | 160725


Характеристики диапазона извлечения и сообщения об ошибках

Выбранный диапазон

Имя файла C:\Users\эксперт\Music\Maple Cross - Next Chapter.wav

Пиковый уровень 98.1 %
Качество диапазона 100.0 %
CRC копии 1A8CD67C
Копирование... OK

Ошибок не произошло


AccurateRip: сводка

Трек 1 точное извлечение (доверие 1) [9E75F3BE]
Трек 2 точное извлечение (доверие 1) [49477F7B]
Трек 3 точное извлечение (доверие 1) [755FE8FE]
Трек 4 точное извлечение (доверие 1) [EAC7F9C1]
Трек 5 точное извлечение (доверие 1) [8AA7BE4E]
Трек 6 точное извлечение (доверие 1) [1DA475B5]
Трек 7 точное извлечение (доверие 1) [EF1EC341]
Трек 8 точное извлечение (доверие 1) [079242D7]
Трек 9 точное извлечение (доверие 1) [294B7089]
Трек 10 точное извлечение (доверие 1) [40346A95]
Трек 11 точное извлечение (доверие 1) [231F7729]

Все треки извлечены точно

Конец отчёта

"Cue"
REM GENRE "Thrash Metal"
REM DATE 2003
REM DISCID 8E085F0B
REM COMMENT "ExactAudioCopy v0.99pb5"
PERFORMER "Maple Cross"
TITLE "Next Chapter"
FILE "Maple Cross - Next Chapter.flac" WAVE
TRACK 01 AUDIO
TITLE "The Spirit Of Northern Brotherhood"
PERFORMER "Maple Cross"
INDEX 01 00:00:00
TRACK 02 AUDIO
TITLE "Au Revoir"
PERFORMER "Maple Cross"
INDEX 00 03:18:61
INDEX 01 03:20:61
TRACK 03 AUDIO
TITLE "Last Steps Of Joe"
PERFORMER "Maple Cross"
INDEX 00 06:13:34
INDEX 01 06:15:34
TRACK 04 AUDIO
TITLE "World Wide Mystery"
PERFORMER "Maple Cross"
INDEX 00 09:14:60
INDEX 01 09:16:60
TRACK 05 AUDIO
TITLE "The Chosen People"
PERFORMER "Maple Cross"
INDEX 00 12:24:64
INDEX 01 12:24:66
TRACK 06 AUDIO
TITLE "Simply Simplicity"
PERFORMER "Maple Cross"
INDEX 00 14:28:03
INDEX 01 14:28:08
TRACK 07 AUDIO
TITLE "Invincibles"
PERFORMER "Maple Cross"
INDEX 00 17:33:18
INDEX 01 17:35:18
TRACK 08 AUDIO
TITLE "Victim Of Life"
PERFORMER "Maple Cross"
INDEX 00 21:56:42
INDEX 01 21:58:42
TRACK 09 AUDIO
TITLE "Nothing Starts From Beginning"
PERFORMER "Maple Cross"
INDEX 00 24:50:05
INDEX 01 24:52:05
TRACK 10 AUDIO
TITLE "Embodiment Of Air"
PERFORMER "Maple Cross"
INDEX 00 28:29:39
INDEX 01 28:31:39
TRACK 11 AUDIO
TITLE "New Direction"
PERFORMER "Maple Cross"
INDEX 00 31:55:18
INDEX 01 31:57:18


Next Chapter


Top
 Profile  
 
 
PostPosted: 15 Nov 2013 
Хиппей (support team)
User avatar
Joined: 30 Jul 2007
Posts: 106511
Lоcаtion: Киев (Kyiv, UA)
Age: 45
Name: Andrey
:thanx:

mirror: Narod l M-Cloud

_________________


Top
 Profile E-mail  
 
 
PostPosted: 15 Nov 2013 
Прокъмитолист
User avatar
Joined: 12 Aug 2007
Posts: 6473
Lоcаtion: Санктъ-Петербуркъ
Age: 50
Name: Олекъ
Ондрюх, объединяй старый топег с новым ;)

_________________
прокъметол - это музыко, от которово есть прок (ы)


Top
 Profile  
 
 
PostPosted: 15 Nov 2013 
Генеральный thrasher
User avatar
Joined: 03 Oct 2008
Posts: 3450
Lоcаtion: Ханты-Мансийский АО
Age: 43
Name: Сергей
Ни фига себе!Такой топик был уже?Лажанулся чутка... :shok:


Top
 Profile  
 
 
PostPosted: 15 Nov 2013 
Хиппей (support team)
User avatar
Joined: 30 Jul 2007
Posts: 106511
Lоcаtion: Киев (Kyiv, UA)
Age: 45
Name: Andrey
Ну там же в аrе был, а у тебя во flac :crazy:

Спасибо за замечательность, слепливаю топики :thanx:

_________________


Top
 Profile E-mail  
 
 
PostPosted: 16 Nov 2013 
Работнечег
User avatar
Joined: 28 Aug 2007
Posts: 5409
Lоcаtion: г. Москва
Age: 29
Name: Дима
Хороший бэнд, Андрюха так и не послушал наверное are формат :crazy:


Top
 Profile E-mail  
 
 
PostPosted: 16 Nov 2013 
Хиппей (support team)
User avatar
Joined: 30 Jul 2007
Posts: 106511
Lоcаtion: Киев (Kyiv, UA)
Age: 45
Name: Andrey
Не-а. Мне вообще сдается, что группа довольно старенькая. Но сейчас не то что слушать, но и полезть на М-А некогда :oops:

_________________


Top
 Profile E-mail  
 
 
PostPosted: 16 Nov 2013 
Работнечег
User avatar
Joined: 28 Aug 2007
Posts: 5409
Lоcаtion: г. Москва
Age: 29
Name: Дима
Ага, группа по-моему где-то с 1990 года рубит, но это токо второй альбом)


Top
 Profile E-mail  
 
 
PostPosted: 17 Nov 2013 
ТрэшЭрос
User avatar
Joined: 18 Jul 2011
Posts: 2296
Lоcаtion: Гулькевичи
Age: 43
Name: Александр
Серёга, :thanx: и :true:

_________________
Thrash no trash!!!


Top
 Profile E-mail  
 
Display posts from previous:  Sort by  
Post new topic Reply to topic  [ 38 posts ]  Go to page Previous  1, 2

All times are UTC + 3 hours


Who is online

Users browsing this forum: No registered users and 2 guests


You cannot post new topics in this forum
You cannot reply to topics in this forum
You cannot edit your posts in this forum
You cannot delete your posts in this forum
You cannot post attachments in this forum

Search for:
Яндекс.Метрика
Powered by phpBB © 2000, 2002, 2005, 2007 phpBB Group