\m/ 80's metal \m/

Информационно-аналитический форум "80 см пыли" (In Search We Trust) "У нас никто никуда не спешит"
Me For You - http://me-4u.com
It is currently 19 Nov 2018

All times are UTC + 3 hours

Spoiler
Chat - temporary registration for foreign users (please leave your application here)







Post new topic Reply to topic  [ 58 posts ]  Go to page Previous  1, 2, 3  Next
Author Message
 
PostPosted: 26 Jun 2014 
Я набрал 1000 сообщений!
Joined: 21 Nov 2009
Posts: 1399
Lоcаtion: praga
Age: 48
Name: Сергей
Как то двадцать пять лет не воспринимал манию из-за некоторой замудрённости в музыке(в абрахасе ещё хуже),а сейчас вдруг вьехал.


Top
 Profile E-mail  
 
 
PostPosted: 27 Jun 2014 
Я набрал 1000 сообщений!
Joined: 21 Nov 2009
Posts: 1399
Lоcаtion: praga
Age: 48
Name: Сергей
Так найти vinyl-rip не реально?


Top
 Profile E-mail  
 
 
PostPosted: 29 Jun 2014 
Хиппей (support team)
User avatar
Joined: 30 Jul 2007
Posts: 108153
Lоcаtion: Киев (Kyiv, UA)
Age: 45
Name: Andrey
У меня снова что-то не так с ухами?
Слушаю альбом сейчас в мп3-320, рип с диска
Quote:
CD version has the Wizard of the Lost Kingdom EP as bonus tracks
, звук хороший и музыка нравится, хоть и хэлловинщина очередная :dance:

Ссылка в процессе.

_________________


Top
 Profile E-mail  
 
 
PostPosted: 29 Jun 2014 
Хиппей (support team)
User avatar
Joined: 30 Jul 2007
Posts: 108153
Lоcаtion: Киев (Kyiv, UA)
Age: 45
Name: Andrey
Mania - 1989 - Changing Times [320]

Image

mirror: Narod l M-Cloud

_________________


Top
 Profile E-mail  
 
 
PostPosted: 29 Jun 2014 
Хиппей (support team)
User avatar
Joined: 30 Jul 2007
Posts: 108153
Lоcаtion: Киев (Kyiv, UA)
Age: 45
Name: Andrey
Если что, лосик вот здесь http://rutracker.org/forum/viewtopic.php?t=2977467
Правда, недельку уже дремлет :lloo:

Или тот же лосик, но в ослике:
| +
ed2k://|file|MANIA%20[1988-89]%20[CD]%20CHANGING%20TIMES%20[EAC-APE]%20BY%20Exploded%20[MeTaLMaDNeSS.TeaM].rar|384037758|AA5553ABD3033C6A9B7086BFA2E81280|h=UWDL6IUHQMGEZ7TTRPJ7LPWKNDEEAJTE|/

_________________


Top
 Profile E-mail  
 
 
PostPosted: 29 Jun 2014 
Я набрал 1000 сообщений!
Joined: 21 Nov 2009
Posts: 1399
Lоcаtion: praga
Age: 48
Name: Сергей
Будем ждать лося. :lloo:


Top
 Profile E-mail  
 
 
PostPosted: 29 Jun 2014 
Хиппей (support team)
User avatar
Joined: 30 Jul 2007
Posts: 108153
Lоcаtion: Киев (Kyiv, UA)
Age: 45
Name: Andrey
Завтра должон прискакать :begun:

_________________


Top
 Profile E-mail  
 
 
PostPosted: 30 Jun 2014 
Хиппей (support team)
User avatar
Joined: 30 Jul 2007
Posts: 108153
Lоcаtion: Киев (Kyiv, UA)
Age: 45
Name: Andrey
Хм, стрянно. Осёл за ночь... упал в пассивный режим :shok:
Пытаюсь найти причину такого безобразия :fingal:

_________________


Top
 Profile E-mail  
 
 
PostPosted: 30 Jun 2014 
Я набрал 1000 сообщений!
Joined: 21 Nov 2009
Posts: 1399
Lоcаtion: praga
Age: 48
Name: Сергей
:esel: :esel: :esel:


Top
 Profile E-mail  
 
 
PostPosted: 30 Jun 2014 
Хиппей (support team)
User avatar
Joined: 30 Jul 2007
Posts: 108153
Lоcаtion: Киев (Kyiv, UA)
Age: 45
Name: Andrey
Ну, если никто не присоединится, то включаем слоган форума :dance:

_________________


Top
 Profile E-mail  
 
 
PostPosted: 01 Jul 2014 
5-speed satisfactor
User avatar
Joined: 16 Feb 2009
Posts: 3620
Lоcаtion: New York, USA
Age: 40
Name: Leonid
Че то я не понял. Есть лось http://rutracker.org/forum/viewtopic.php?t=2977467. Это CD переиздание, которое адекватное и звучит не хуже винила, если не лучше. Какого лося вы еще хотите? У меня был винил и я его продал пацану причем с этого форума. И винил я не оцифровывал, поскольку не посчитал нужным.

_________________
Death rules! Metal to all who oppose!


Top
 Profile  
 
 
PostPosted: 01 Jul 2014 
Я набрал 1000 сообщений!
Joined: 21 Nov 2009
Posts: 1399
Lоcаtion: praga
Age: 48
Name: Сергей
На него нет раздачи."Полный источник:не было 9 дней." :vic:


Top
 Profile E-mail  
 
 
PostPosted: 01 Jul 2014 
Хиппей (support team)
User avatar
Joined: 30 Jul 2007
Posts: 108153
Lоcаtion: Киев (Kyiv, UA)
Age: 45
Name: Andrey
Скача.лось. Переливаю :pardon:

_________________


Top
 Profile E-mail  
 
 
PostPosted: 01 Jul 2014 
Хиппей (support team)
User avatar
Joined: 30 Jul 2007
Posts: 108153
Lоcаtion: Киев (Kyiv, UA)
Age: 45
Name: Andrey
MANIA [1988-89] [CD] CHANGING TIMES [EAC-APE] BY Exploded [MeTaLMaDNeSS.TeaM] :thanx:

Image

Image
Image

mirror: Narod l M-Cloud

log
EAC extraction logfile from 5. January 2008, 8:34 for CD
Mania / Changing Times

Used drive : BENQ DVD DD DW1640 Adapter: 0 ID: 1
Read mode : Secure with NO C2, accurate stream, disable cache
Read offset correction : 618
Overread into Lead-In and Lead-Out : No

Used output format : C:\- Temp\Metalmadness.Pack.v3.0.-.Tutorial.APE-FLAC-WV\Exact Audio Copy 0.9b4 + APE WV & FLAC Encoders\MAC.EXE (Monkey's Audio Lossless Encoder)
High Lossless Compression

Other options :
Fill up missing offset samples with silence : Yes
Delete leading and trailing silent blocks : No
Native Win32 interface for Win NT & 2000


Range status and errors
Selected range
Filename C:\- Temp\Mania-Changing_Times.wav

Peak level 100.0 %
Range quality 100.0 %
CRC 60C4D228
Copy OK

No errors occured

End of status report

cue
PERFORMER "Mania"
TITLE "Changing Times"
FILE "Mania-Changing_Times.ape" WAVE
TRACK 01 AUDIO
TITLE "Prelude"
PERFORMER "Mania"
INDEX 01 00:00:00
TRACK 02 AUDIO
TITLE "The Expulsion"
PERFORMER "Mania"
FLAGS DCP
INDEX 01 01:00:45
TRACK 03 AUDIO
TITLE "Turn Towards The Light"
PERFORMER "Mania"
FLAGS DCP
INDEX 01 04:53:47
TRACK 04 AUDIO
TITLE "No Way Back"
PERFORMER "Mania"
FLAGS DCP
INDEX 01 08:04:02
TRACK 05 AUDIO
TITLE "Be String"
PERFORMER "Mania"
FLAGS DCP
INDEX 01 13:11:27
TRACK 06 AUDIO
TITLE "To The End Of The World"
PERFORMER "Mania"
FLAGS DCP
INDEX 00 16:01:52
INDEX 01 16:03:27
TRACK 07 AUDIO
TITLE "The Vision"
PERFORMER "Mania"
FLAGS DCP
INDEX 00 19:44:07
INDEX 01 19:46:57
TRACK 08 AUDIO
TITLE "Gambler"
PERFORMER "Mania"
FLAGS DCP
INDEX 00 23:23:22
INDEX 01 23:25:72
TRACK 09 AUDIO
TITLE "We Don't Need War"
PERFORMER "Mania"
FLAGS DCP
INDEX 00 26:24:52
INDEX 01 26:26:52
TRACK 10 AUDIO
TITLE "Violent Time"
PERFORMER "Mania"
FLAGS DCP
INDEX 00 29:25:12
INDEX 01 29:28:12
TRACK 11 AUDIO
TITLE "Muffty's Arrival"
PERFORMER "Mania"
FLAGS DCP
INDEX 00 32:48:27
INDEX 01 32:51:27
TRACK 12 AUDIO
TITLE "Wizzard Of The Lost Kingdom"
PERFORMER "Mania"
FLAGS DCP
INDEX 01 34:13:07
TRACK 13 AUDIO
TITLE "Night Of The Blade"
PERFORMER "Mania"
FLAGS DCP
INDEX 00 39:01:65
INDEX 01 39:02:40
TRACK 14 AUDIO
TITLE "Gods Of Fire"
PERFORMER "Mania"
FLAGS DCP
INDEX 00 43:43:12
INDEX 01 43:45:62
TRACK 15 AUDIO
TITLE "Under The Sign Of The Cross"
PERFORMER "Mania"
FLAGS DCP
INDEX 01 47:26:10
TRACK 16 AUDIO
TITLE "Break Out"
PERFORMER "Mania"
FLAGS DCP
INDEX 01 51:20:30
TRACK 17 AUDIO
TITLE "Mufty's Departure"
PERFORMER "Mania"
FLAGS DCP
INDEX 00 55:52:45
INDEX 01 55:52:70

_________________


Top
 Profile E-mail  
 
 
PostPosted: 01 Jul 2014 
Я набрал 1000 сообщений!
Joined: 21 Nov 2009
Posts: 1399
Lоcаtion: praga
Age: 48
Name: Сергей
Спасибо Андрей за рип,отличный.Но к сожелению убедился что 89 не важно записан,очень бедная стереобаза,всё в середине навалено.Это очень странно для NOICE.Oгромный контраст с мини 88.там всё зер гуд.Не могу найти виниловый задник для мини 88.


Top
 Profile E-mail  
 
 
PostPosted: 01 Jul 2014 
Хиппей (support team)
User avatar
Joined: 30 Jul 2007
Posts: 108153
Lоcаtion: Киев (Kyiv, UA)
Age: 45
Name: Andrey
:vic: А я как раз этот рип и не слушал...

_________________


Top
 Profile E-mail  
 
 
PostPosted: 04 Feb 2016 
Я набрал 1000 сообщений!
Joined: 21 Nov 2009
Posts: 1399
Lоcаtion: praga
Age: 48
Name: Сергей
Image

Image

Пошло какое то шевеление от Мании,неужели тоже соберутся?!Как раз пару дней назад спрашивал Виталика про винил-рип 89 года.Всеж сд-ишный вариант просто невожможно слушать. :esel: Виталик надежда только на тебя! :thanx: Ведь такой шедевр. :true:


Top
 Profile E-mail  
 
 
PostPosted: 04 Feb 2016 
5-speed satisfactor
User avatar
Joined: 16 Feb 2009
Posts: 3620
Lоcаtion: New York, USA
Age: 40
Name: Leonid
Был у меня нулевый винил. Сравнил его с цыдом. Нашел, что винил не лучше. Избавился без сожаления. Слухаю рип с цыда сйчас. Никаких прблем не вижу.

_________________
Death rules! Metal to all who oppose!


Top
 Profile  
 
 
PostPosted: 04 Feb 2016 
Я набрал 1000 сообщений!
Joined: 21 Nov 2009
Posts: 1399
Lоcаtion: praga
Age: 48
Name: Сергей
Был у меня нулевый винил. Сравнил его с цыдом. Нашел, что винил не лучше. Избавился без сожаления. Слухаю рип с цыда сйчас. Никаких прблем не вижу.

Значит и винил хреново записан :fingal: .Жаль! :cry:


Top
 Profile E-mail  
 
 
PostPosted: 04 Feb 2016 
5-speed satisfactor
User avatar
Joined: 16 Feb 2009
Posts: 3620
Lоcаtion: New York, USA
Age: 40
Name: Leonid
Я сравнивал не в наушниках. И тогда у меня была дешевая игла. Тем не менее можно было сразу определить звучит ли винил лучше цыда или нет. Да и вообще в комце 80х Noise печатал вполне нормальные цыды. Исключение может быть только Celtic Frost - Into The Pandemonium. Он на цуде хреново звучит.

_________________
Death rules! Metal to all who oppose!


Top
 Profile  
 
Display posts from previous:  Sort by  
Post new topic Reply to topic  [ 58 posts ]  Go to page Previous  1, 2, 3  Next

All times are UTC + 3 hours


Who is online

Users browsing this forum: No registered users and 1 guest


You cannot post new topics in this forum
You cannot reply to topics in this forum
You cannot edit your posts in this forum
You cannot delete your posts in this forum
You cannot post attachments in this forum

Search for:
Яндекс.Метрика
Powered by phpBB © 2000, 2002, 2005, 2007 phpBB Group