\m/ 80's metal \m/

Информационно-аналитический форум "80 см пыли" (In Search We Trust) "У нас никто никуда не спешит"
Me For You - http://me-4u.com
It is currently 23 Sep 2018

All times are UTC + 3 hours

Spoiler
Chat - temporary registration for foreign users (please leave your application here)







Post new topic Reply to topic  [ 13 posts ] 
Author Message
 
PostPosted: 24 Sep 2016 
Труъ
User avatar
Joined: 25 Aug 2009
Posts: 166
Lоcаtion: Москва
Name: Павел
лучше бы Morbus Wilson нашли...


Top
 Profile E-mail  
 
 
PostPosted: 19 Oct 2016 
Труъ
User avatar
Joined: 25 Aug 2009
Posts: 166
Lоcаtion: Москва
Name: Павел
сам упомянул, и сам себе же отвечаю: кому нужен вышеупомянутый Morbus Wilson (единственный альбом) - тащите 320 кбит отсюда (ссылка вряд ли проживёт долго, так что не спите) - http://file.sampo.ru/w4t35g/


Top
 Profile E-mail  
 
 
PostPosted: 20 Oct 2016 
Генеральный thrasher
User avatar
Joined: 03 Oct 2008
Posts: 3449
Lоcаtion: Ханты-Мансийский АО
Age: 43
Name: Сергей
лучше бы Morbus Wilson нашли...


Лосяра Morbus Wilson здесь.Тоже долго искать не надо!

http://www.mediaboom.org/460731-morbus- ... sless.html


Top
 Profile  
 
 
PostPosted: 29 Nov 2016 
Хиппей (support team)
User avatar
Joined: 30 Jul 2007
Posts: 106471
Lоcаtion: Киев (Kyiv, UA)
Age: 45
Name: Andrey
лучше бы Morbus Wilson нашли...


Лосяра Morbus Wilson здесь.Тоже долго искать не надо!

http://www.mediaboom.org/460731-morbus- ... sless.html

Отделю все же темы, а то устроили соц-соревнование :fingal:

_________________


Top
 Profile E-mail  
 
 
PostPosted: 29 Nov 2016 
Хиппей (support team)
User avatar
Joined: 30 Jul 2007
Posts: 106471
Lоcаtion: Киев (Kyiv, UA)
Age: 45
Name: Andrey
Morbus Wilson - 1994 - Сorematic [flac]

Image Image

mirror: iFolder l Narod l M-Cloud

log
Exact Audio Copy V1.0 beta 3 from 29. August 2011

Отчёт EAC об извлечении, выполненном 20. сентября 2016, 21:24

Morbus Wilson / Сorematic

Дисковод: PIONEER DVD-RW DVR-221L Adapter: 0 ID: 0

Режим чтения : Достоверность
Использование точного потока : Да
Отключение кэша аудио : Да
Использование указателей C2 : Нет

Коррекция смещения при чтении : 6
Способность читать области Lead-in и Lead-out : Нет
Заполнение пропущенных сэмплов тишиной : Да
Удаление блоков с тишиной в начале и конце : Нет
При вычислениях CRC использовались нулевые сэмплы : Да
Интерфейс : Встроенный Win32-интерфейс для Win NT/2000

Выходной формат : Пользовательский кодировщик
Выбранный битрейт : 1024 kBit/s
Качество : Высокий
Добавление ID3-тега : Нет
Утилита сжатия : C:\Program Files (x86)\FLAC\flac.exe
Дополнительные параметры : -V -8 -T "Date=%year%" -T "Genre=%genre%" %source%


TOC извлечённого CD

Трек | Старт | Длительность | Начальный сектор | Конечный сектор
---------------------------------------------------------------------
1 | 0:00.00 | 5:39.02 | 0 | 25426
2 | 5:39.02 | 4:10.65 | 25427 | 44241
3 | 9:49.67 | 5:07.30 | 44242 | 67296
4 | 14:57.22 | 4:36.13 | 67297 | 88009
5 | 19:33.35 | 4:25.20 | 88010 | 107904
6 | 23:58.55 | 6:08.07 | 107905 | 135511
7 | 30:06.62 | 9:03.38 | 135512 | 176274


Характеристики диапазона извлечения и сообщения об ошибках

Выбранный диапазон

Имя файла F:\FLAC\Morbus Wilson - Сorematic.wav

Пиковый уровень 100.0 %
Скорость извлечения 6.8 X
Качество диапазона 100.0 %
CRC теста 53C5DEE4
CRC копии 53C5DEE4
Копирование... OK

Ошибок не произошло


AccurateRip: сводка

Трек 1 отсутствует в базе данных
Трек 2 отсутствует в базе данных
Трек 3 отсутствует в базе данных
Трек 4 отсутствует в базе данных
Трек 5 отсутствует в базе данных
Трек 6 отсутствует в базе данных
Трек 7 отсутствует в базе данных

Ни одного трека нет в базе AccurateRip

Конец отчёта

==== Контрольная сумма отчёта BC0CD5A4C5937B09BF775929458A9C93AC6594C2B28A43550B28D1038DE28040 ====

cue
REM GENRE "Thrash Metal"
REM DATE 1994
REM DISCID 5B092E07
REM COMMENT "ExactAudioCopy v1.0b3"
PERFORMER "Morbus Wilson"
TITLE "Сorematic"
FILE "Morbus Wilson - Сorematic.flac" WAVE
TRACK 01 AUDIO
TITLE "Head First To Power Pain"
PERFORMER "Morbus Wilson"
INDEX 01 00:00:00
TRACK 02 AUDIO
TITLE "Corematic"
PERFORMER "Morbus Wilson"
INDEX 01 05:39:02
TRACK 03 AUDIO
TITLE "Killed By Lies"
PERFORMER "Morbus Wilson"
INDEX 00 09:48:37
INDEX 01 09:49:67
TRACK 04 AUDIO
TITLE "For Evermore"
PERFORMER "Morbus Wilson"
INDEX 01 14:57:22
TRACK 05 AUDIO
TITLE "My Pilosophy"
PERFORMER "Morbus Wilson"
INDEX 01 19:33:35
TRACK 06 AUDIO
TITLE "Diluvium"
PERFORMER "Morbus Wilson"
INDEX 01 23:58:55
TRACK 07 AUDIO
TITLE "Victim Of The Good (A New Life)"
PERFORMER "Morbus Wilson"
INDEX 00 30:04:10
INDEX 01 30:06:62

_________________


Top
 Profile E-mail  
 
 
PostPosted: 29 Nov 2016 
Хиппей (support team)
User avatar
Joined: 30 Jul 2007
Posts: 106471
Lоcаtion: Киев (Kyiv, UA)
Age: 45
Name: Andrey
Image

:meloman: :meloman: :meloman:

_________________


Top
 Profile E-mail  
 
 
PostPosted: 30 Nov 2016 
Хиппей (support team)
User avatar
Joined: 30 Jul 2007
Posts: 106471
Lоcаtion: Киев (Kyiv, UA)
Age: 45
Name: Andrey
Хы, в общем, никакой это не грув-трэш, как много где указано.
Но и не чистый трэш, а с примесями альтернативки. Но, если там можно выразиться, трушной альтернативки.
Что сие есть? А это достаточно забойный трэшак, но.. сдобренный хардкоровым раздолбайством и иногда речитативным вокалом. Но не смешным и панковским, а грубым, мужским и трушным вокалом.
То есть, от альбома точно не воротит. А мне так вообще пару песен зело понравились. Надеюсь, Анатолий здесь из тоже оценит.

6+/10

Ага, ещё вспомнил. Можно этот стиль обозвать одним словом - Thrashcore.

_________________


Top
 Profile E-mail  
 
 
PostPosted: 30 Nov 2016 
Генеральный thrasher
User avatar
Joined: 03 Oct 2008
Posts: 3449
Lоcаtion: Ханты-Мансийский АО
Age: 43
Name: Сергей
Товарищ burzzum регулярно выкладывает интересных и зачастую редких лосей.Стараюсь отслеживать его рипы.


Top
 Profile  
 
 
PostPosted: 30 Nov 2016 
Хиппей (support team)
User avatar
Joined: 30 Jul 2007
Posts: 106471
Lоcаtion: Киев (Kyiv, UA)
Age: 45
Name: Andrey
Это он только на МедиаБуме кладёт их?

А то этот сайт в Гугле забанен :pardon: Потому лично я лишь по твоей наводке туды попадаю, получается.

_________________


Top
 Profile E-mail  
 
 
PostPosted: 30 Nov 2016 
Генеральный thrasher
User avatar
Joined: 03 Oct 2008
Posts: 3449
Lоcаtion: Ханты-Мансийский АО
Age: 43
Name: Сергей
Ещё здесь,Андрюх - http://get-albums.ru/metal/thrash_metal/

Но надо регистрироваться чтобы ссылки видеть.


Top
 Profile  
 
 
PostPosted: 01 Dec 2016 
Хиппей (support team)
User avatar
Joined: 30 Jul 2007
Posts: 106471
Lоcаtion: Киев (Kyiv, UA)
Age: 45
Name: Andrey
То есть, это он? http://get-albums.ru/user/sem1991/

Серёг, спасибо. Я везде почти зареган :tro:

_________________


Top
 Profile E-mail  
 
 
PostPosted: 01 Dec 2016 
Хиппей (support team)
User avatar
Joined: 30 Jul 2007
Posts: 106471
Lоcаtion: Киев (Kyiv, UA)
Age: 45
Name: Andrey
А, не, вот же он http://get-albums.ru/user/burzzum/

Теперь, понял, кто это

Image


Кстати, человек вот, сам смотри - на своих же рипах и зарабатывает. заливая на файлообменники, где платят за скачивание :kro:

_________________


Top
 Profile E-mail  
 
 
PostPosted: 01 Dec 2016 
Труъ
User avatar
Joined: 25 Aug 2009
Posts: 166
Lоcаtion: Москва
Name: Павел
Прочел недавно, что русфолдер не будет более за скачивание платить, вроде бы. Ну, за кол-во скачек, как раньше было.
И еще, мне всегда казалось (хотя я от этого дела далёк и могу что-то путать), что ради большого кол-ва скачиваний надо везде пихать одну и ту же ссылку, на максимум сайтов-форумов. А сейчас многие сайты требуют свои нюансы (напр., чтобы в залитом архиве было имя сайта и т.д.)
Смысл всей этой тирады прост: а реально ли сейчас на подобном, при указанных условиях, заработать что-то существенное? Как-то сомнительно.


Top
 Profile E-mail  
 
Display posts from previous:  Sort by  
Post new topic Reply to topic  [ 13 posts ] 

All times are UTC + 3 hours


Who is online

Users browsing this forum: No registered users and 2 guests


You cannot post new topics in this forum
You cannot reply to topics in this forum
You cannot edit your posts in this forum
You cannot delete your posts in this forum
You cannot post attachments in this forum

Search for:
Яндекс.Метрика
Powered by phpBB © 2000, 2002, 2005, 2007 phpBB Group