\m/ 80's metal \m/

Информационно-аналитический форум "80 см пыли" (In Search We Trust) "У нас никто никуда не спешит"
Me For You - http://me-4u.com
It is currently 20 Sep 2018

All times are UTC + 3 hours

Spoiler
Chat - temporary registration for foreign users (please leave your application here)







Post new topic Reply to topic  [ 8 posts ] 
Author Message
 
PostPosted: 22 Nov 2016 
Хиппей (support team)
User avatar
Joined: 30 Jul 2007
Posts: 106326
Lоcаtion: Киев (Kyiv, UA)
Age: 45
Name: Andrey
Mortillery - 2016 - Shapeshifter [flac]

Image Image

mirror: iFolder l Narod l M-Cloud

Источник :arrow: https://rutracker.org/forum/viewtopic.php?t=5314909 :thanx:

Image Image
Image Image
Image Image

log
Exact Audio Copy V1.1 from 23. June 2015

Отчёт EAC об извлечении, выполненном 17. ноября 2016, 14:14

Mortillery / Shapeshifter

Дисковод: HL-DT-STDVDRAM GTA0N Adapter: 1 ID: 0

Режим чтения : Достоверность
Использование точного потока : Да
Отключение кэша аудио : Да
Использование указателей C2 : Нет

Коррекция смещения при чтении : 102
Способность читать области Lead-in и Lead-out : Нет
Заполнение пропущенных сэмплов тишиной : Да
Удаление блоков с тишиной в начале и конце : Нет
При вычислениях CRC использовались нулевые сэмплы : Да
Интерфейс : Встроенный Win32-интерфейс для Win NT/2000

Выходной формат : Пользовательский кодировщик
Выбранный битрейт : 768 kBit/s
Качество : Высокий
Добавление ID3-тега : Нет
Утилита сжатия : C:\Program Files (x86)\Exact Audio Copy\FLAC\FLAC.EXE
Дополнительные параметры : -6 -V -T "ARTIST=%artist%" -T "TITLE=%title%" -T "ALBUM=%albumtitle%" -T "DATE=%year%" -T "TRACKNUMBER=%tracknr%" -T "GENRE=%genre%" -T "COMMENT=%comment%" -T "BAND=%albuminterpret%" -T "ALBUMARTIST=%albuminterpret%" -T "COMPOSER=%composer%" %haslyrics%--tag-from-file=LYRICS="%lyricsfile%"%haslyrics% -T "DISCNUMBER=%cdnumber%" -T "TOTALDISCS=%totalcds%" -T "TOTALTRACKS=%numtracks%" %hascover%--picture="%coverfile%"%hascover% %source% -o %dest%


TOC извлечённого CD

Трек | Старт | Длительность | Начальный сектор | Конечный сектор
---------------------------------------------------------------------
1 | 0:00.00 | 5:13.71 | 0 | 23545
2 | 5:13.71 | 4:47.22 | 23546 | 45092
3 | 10:01.18 | 4:02.17 | 45093 | 63259
4 | 14:03.35 | 4:03.20 | 63260 | 81504
5 | 18:06.55 | 3:58.03 | 81505 | 99357
6 | 22:04.58 | 5:10.28 | 99358 | 122635
7 | 27:15.11 | 4:19.72 | 122636 | 142132
8 | 31:35.08 | 4:18.40 | 142133 | 161522
9 | 35:53.48 | 5:37.34 | 161523 | 186831
10 | 41:31.07 | 1:38.61 | 186832 | 194242
11 | 43:09.68 | 4:06.42 | 194243 | 212734
12 | 47:16.35 | 2:57.48 | 212735 | 226057


Характеристики диапазона извлечения и сообщения об ошибках

Выбранный диапазон

Имя файла C:\Users\магазин\Music\Mortillery - Shapeshifter.wav

Пиковый уровень 98.8 %
Скорость извлечения 4.1 X
Качество диапазона 100.0 %
CRC копии DD9EFFD8
Копирование... OK

Ошибок не произошло


AccurateRip: сводка

Трек 1 : извлечено точно (доверие 2) [8F82A133] (AR v2)
Трек 2 : извлечено точно (доверие 2) [DC0CC0D1] (AR v2)
Трек 3 : извлечено точно (доверие 2) [AF75B682] (AR v2)
Трек 4 : извлечено точно (доверие 2) [C06DD44E] (AR v2)
Трек 5 : извлечено точно (доверие 2) [A05D16C8] (AR v2)
Трек 6 : извлечено точно (доверие 2) [CE995F04] (AR v2)
Трек 7 : извлечено точно (доверие 2) [64BDFD64] (AR v2)
Трек 8 : извлечено точно (доверие 2) [6612FB93] (AR v2)
Трек 9 : извлечено точно (доверие 2) [426AB186] (AR v2)
Трек 10 : извлечено точно (доверие 2) [19EA7F45] (AR v2)
Трек 11 : извлечено точно (доверие 2) [BCA10DC9] (AR v2)
Трек 12 : извлечено точно (доверие 2) [C09E2D05] (AR v2)

Все треки извлечены точно

Конец отчёта

---- CUETools DB Plugin V2.1.6

[CTDB TOCID: PUYLDMBx0h7.ojy4MXey5HffGlk-] found
Submit result: PUYLDMBx0h7.ojy4MXey5HffGlk- has been confirmed
Track | CTDB Status
1 | (1/1) Accurately ripped
2 | (1/1) Accurately ripped
3 | (1/1) Accurately ripped
4 | (1/1) Accurately ripped
5 | (1/1) Accurately ripped
6 | (1/1) Accurately ripped
7 | (1/1) Accurately ripped
8 | (1/1) Accurately ripped
9 | (1/1) Accurately ripped
10 | (1/1) Accurately ripped
11 | (1/1) Accurately ripped
12 | (1/1) Accurately ripped

cue
REM GENRE "Thrash Metal"
REM DATE 2016
REM DISCID B10BC60C
REM COMMENT "ExactAudioCopy v1.1"
PERFORMER "Mortillery"
TITLE "Shapeshifter"
FILE "Mortillery - Shapeshifter.flac" WAVE
TRACK 01 AUDIO
TITLE "Radiation Sickness"
PERFORMER "Mortillery"
INDEX 01 00:00:00
TRACK 02 AUDIO
TITLE "Age Of Stone"
PERFORMER "Mortillery"
INDEX 00 05:13:66
INDEX 01 05:13:71
TRACK 03 AUDIO
TITLE "Bullet"
PERFORMER "Mortillery"
INDEX 00 10:01:13
INDEX 01 10:01:18
TRACK 04 AUDIO
TITLE "Mantis"
PERFORMER "Mortillery"
INDEX 00 14:03:30
INDEX 01 14:03:35
TRACK 05 AUDIO
TITLE "Black Friday"
PERFORMER "Mortillery"
INDEX 00 18:06:50
INDEX 01 18:06:55
TRACK 06 AUDIO
TITLE "Wendigo"
PERFORMER "Mortillery"
INDEX 00 22:04:53
INDEX 01 22:04:58
TRACK 07 AUDIO
TITLE "At The Gates"
PERFORMER "Mortillery"
INDEX 00 27:15:06
INDEX 01 27:15:11
TRACK 08 AUDIO
TITLE "Torture"
PERFORMER "Mortillery"
INDEX 00 31:35:03
INDEX 01 31:35:08
TRACK 09 AUDIO
TITLE "Shapeshifter"
PERFORMER "Mortillery"
INDEX 00 35:53:43
INDEX 01 35:53:48
TRACK 10 AUDIO
TITLE "Patient Zero"
PERFORMER "Mortillery"
INDEX 00 41:31:02
INDEX 01 41:31:07
TRACK 11 AUDIO
TITLE "Neckbreaker"
PERFORMER "Mortillery"
INDEX 00 43:09:63
INDEX 01 43:09:68
TRACK 12 AUDIO
TITLE "Shine (Motorhead cover)"
PERFORMER "Mortillery"
INDEX 00 47:16:30
INDEX 01 47:16:35

_________________


Top
 Profile E-mail  
 
 
PostPosted: 23 Nov 2016 
Прокъмитолист
User avatar
Joined: 12 Aug 2007
Posts: 6469
Lоcаtion: Санктъ-Петербуркъ
Age: 50
Name: Олекъ
:thanx:

_________________
прокъметол - это музыко, от которово есть прок (ы)


Top
 Profile  
 
 
PostPosted: 23 Nov 2016 
Хиппей (support team)
User avatar
Joined: 30 Jul 2007
Posts: 106326
Lоcаtion: Киев (Kyiv, UA)
Age: 45
Name: Andrey
Какая всё ж гадость, этот неуместно мэталкорово порыкивающий вокал у бабы-вокалистки.
Чистым голосом то она поёт хорошо, и даже весьма, но рычать зачем? :vic: :esel: :esel: :esel:

_________________


Top
 Profile E-mail  
 
 
PostPosted: 23 Nov 2016 
дядя Миша
User avatar
Joined: 17 Oct 2008
Posts: 3053
Lоcаtion: USSR
Age: 56
Name: Khy
Какая всё ж гадость, этот неуместно мэталкорово порыкивающий вокал у бабы-вокалистки.
Чистым голосом то она поёт хорошо, и даже весьма, но рычать зачем? :vic: :esel: :esel: :esel:


А Я ж тебе говорил ужас :crazy: А ты Буша Буша.


Top
 Profile  
 
 
PostPosted: 23 Nov 2016 
Хиппей (support team)
User avatar
Joined: 30 Jul 2007
Posts: 106326
Lоcаtion: Киев (Kyiv, UA)
Age: 45
Name: Andrey
Да Буш бы за нормальные бапки спел бы, но только.. Хотя, музыка то как раз под него. Но многовато скоростных моментов =)) Он в них или молчать будет, или тоже рычать :crazy:

_________________


Top
 Profile E-mail  
 
 
PostPosted: 24 Nov 2016 
Хиппей (support team)
User avatar
Joined: 30 Jul 2007
Posts: 106326
Lоcаtion: Киев (Kyiv, UA)
Age: 45
Name: Andrey
Ой, там и басистка баба в группе...

Image

_________________


Top
 Profile E-mail  
 
 
PostPosted: 24 Nov 2016 
Partisanen - nicht kapitulieren!!
User avatar
Joined: 25 Dec 2011
Posts: 6730
Lоcаtion: партизанские леса
Age: 45
Name: Владимир
Quote:
with Famele terrible voice

а это ещё куда? :shok:

_________________
One more beer and Heavy Metal and I'm just fine!
старовер, куле... слово "блин" - до сих пор через Ъ говорю


Top
 Profile E-mail  
 
 
PostPosted: 24 Nov 2016 
Хиппей (support team)
User avatar
Joined: 30 Jul 2007
Posts: 106326
Lоcаtion: Киев (Kyiv, UA)
Age: 45
Name: Andrey
Ой, спасибо =) :thanx: Ща подравлю. Буквы спутал :pardon:

_________________


Top
 Profile E-mail  
 
Display posts from previous:  Sort by  
Post new topic Reply to topic  [ 8 posts ] 

All times are UTC + 3 hours


Who is online

Users browsing this forum: No registered users and 1 guest


You cannot post new topics in this forum
You cannot reply to topics in this forum
You cannot edit your posts in this forum
You cannot delete your posts in this forum
You cannot post attachments in this forum

Search for:
Яндекс.Метрика
Powered by phpBB © 2000, 2002, 2005, 2007 phpBB Group