\m/ 80's metal \m/

Информационно-аналитический форум "80 см пыли" (In Search We Trust) "У нас никто никуда не спешит"
Me For You - http://me-4u.com
It is currently 16 Nov 2018

All times are UTC + 3 hours

Spoiler
Chat - temporary registration for foreign users (please leave your application here)







Post new topic Reply to topic  [ 8 posts ] 
Author Message
 
PostPosted: 26 Jun 2016 
5-speed satisfactor
User avatar
Joined: 16 Feb 2009
Posts: 3619
Lоcаtion: New York, USA
Age: 40
Name: Leonid
Вот вот этот вот релиз.

Оформите.

5 дней у вас.

Image Image Image

1. Hymn To Abramelin - 01:15
2. Messiah (Extra Version) - 02:54
3. Anarchus - 04:23
4. Space Invaders - 03:53
5. Thrashing Madness - 02:37
6. Future Aggressor - 02:28
7. Empire Of The Damned - 03:09
8. Total Maniac - 03:59
9. The Dentist - 08:00
10. Wytchcyrcle - 05:37
11. Speed Fight - 07:26
12. Mortal Bells - 05:18
13. (Never Provide) The Key Of Hell - 10:49

TPT:


Tracks 10-13 are marked as "Previously Unreleased".
Reissue from the 1986 original release on Chainsaw Murder Records.


log
Exact Audio Copy V0.99 prebeta 5 from 4. May 2009

EAC extraction logfile from 30. May 2016, 22:18

Messiah / Hymn To Abramelin

Used drive : PLEXTOR DVDR PX-760A Adapter: 4 ID: 0

Read mode : Secure
Utilize accurate stream : Yes
Defeat audio cache : Yes
Make use of C2 pointers : No

Read offset correction : 30
Overread into Lead-In and Lead-Out : Yes
Fill up missing offset samples with silence : Yes
Delete leading and trailing silent blocks : No
Null samples used in CRC calculations : No
Used interface : Installed external ASPI interface

Used output format : Internal WAV Routines
Sample format : 44.100 Hz; 16 Bit; Stereo


TOC of the extracted CD

Track | Start | Length | Start sector | End sector
---------------------------------------------------------
1 | 0:00.00 | 1:14.65 | 0 | 5614
2 | 1:14.65 | 2:53.64 | 5615 | 18653
3 | 4:08.54 | 4:22.68 | 18654 | 38371
4 | 8:31.47 | 3:53.33 | 38372 | 55879
5 | 12:25.05 | 2:37.34 | 55880 | 67688
6 | 15:02.39 | 2:27.69 | 67689 | 78782
7 | 17:30.33 | 3:08.40 | 78783 | 92922
8 | 20:38.73 | 3:58.72 | 92923 | 110844
9 | 24:37.70 | 8:00.20 | 110845 | 146864
10 | 32:38.15 | 5:36.48 | 146865 | 172112
11 | 38:14.63 | 7:25.55 | 172113 | 205542
12 | 45:40.43 | 5:17.45 | 205543 | 229362
13 | 50:58.13 | 10:49.16 | 229363 | 278053


Range status and errors

Selected range

Filename C:\Shared\rips\Messiah\Hymn To Abramelin\Messiah - Hymn To Abramelin.wav

Peak level 98.8 %
Range quality 100.0 %
Copy CRC 3BE35CA6
Copy OK

No errors occurred

End of status report

------------------------------------------------------------

Exact Audio Copy V0.99 prebeta 5 from 4. May 2009

EAC extraction logfile from 30. May 2016, 22:25

Messiah / Hymn To Abramelin

Used drive : PLEXTOR DVDR PX-760A Adapter: 4 ID: 0

Read mode : Secure
Utilize accurate stream : Yes
Defeat audio cache : Yes
Make use of C2 pointers : No

Read offset correction : 11202
Overread into Lead-In and Lead-Out : Yes
Fill up missing offset samples with silence : Yes
Delete leading and trailing silent blocks : No
Null samples used in CRC calculations : No
Used interface : Installed external ASPI interface
Gap handling : Appended to next track

Used output format : Internal WAV Routines
Sample format : 44.100 Hz; 16 Bit; Stereo


TOC of the extracted CD

Track | Start | Length | Start sector | End sector
---------------------------------------------------------
1 | 0:00.00 | 1:14.65 | 0 | 5614
2 | 1:14.65 | 2:53.64 | 5615 | 18653
3 | 4:08.54 | 4:22.68 | 18654 | 38371
4 | 8:31.47 | 3:53.33 | 38372 | 55879
5 | 12:25.05 | 2:37.34 | 55880 | 67688
6 | 15:02.39 | 2:27.69 | 67689 | 78782
7 | 17:30.33 | 3:08.40 | 78783 | 92922
8 | 20:38.73 | 3:58.72 | 92923 | 110844
9 | 24:37.70 | 8:00.20 | 110845 | 146864
10 | 32:38.15 | 5:36.48 | 146865 | 172112
11 | 38:14.63 | 7:25.55 | 172113 | 205542
12 | 45:40.43 | 5:17.45 | 205543 | 229362
13 | 50:58.13 | 10:49.16 | 229363 | 278053


Track 13

Filename C:\Shared\rips\Messiah\Hymn To Abramelin\13. (Never Provide) The Key Of Hell.wav

Peak level 98.8 %
Track quality 100.0 %
Copy CRC 9ED6CB43
Copy OK

No errors occurred

End of status report

cue
REM GENRE "Thrash Metal"
REM DATE 1986
REM DISCID 9D0E7B0D
REM COMMENT "ExactAudioCopy v0.99pb5"
PERFORMER "Messiah"
TITLE "Hymn To Abramelin"
FILE "Messiah - Hymn To Abramelin.wav" WAVE
TRACK 01 AUDIO
TITLE "Hymn To Abramelin"
PERFORMER "Messiah"
INDEX 01 00:00:00
TRACK 02 AUDIO
TITLE "Messiah (extra version)"
PERFORMER "Messiah"
INDEX 01 01:14:65
TRACK 03 AUDIO
TITLE "Anarchus"
PERFORMER "Messiah"
INDEX 01 04:08:54
TRACK 04 AUDIO
TITLE "Space Invaders"
PERFORMER "Messiah"
INDEX 01 08:31:47
TRACK 05 AUDIO
TITLE "Thrashing Madness"
PERFORMER "Messiah"
INDEX 01 12:25:05
TRACK 06 AUDIO
TITLE "Future Agressor"
PERFORMER "Messiah"
INDEX 01 15:02:39
TRACK 07 AUDIO
TITLE "Empire Of The Damned"
PERFORMER "Messiah"
INDEX 01 17:30:33
TRACK 08 AUDIO
TITLE "Total Maniac"
PERFORMER "Messiah"
INDEX 01 20:38:73
TRACK 09 AUDIO
TITLE "The Dentist"
PERFORMER "Messiah"
INDEX 01 24:37:70
TRACK 10 AUDIO
TITLE "Wytchcyrcle"
PERFORMER "Messiah"
INDEX 01 32:38:15
TRACK 11 AUDIO
TITLE "Speed Fight"
PERFORMER "Messiah"
INDEX 01 38:14:63
TRACK 12 AUDIO
TITLE "Mortal Bells"
PERFORMER "Messiah"
INDEX 01 45:40:43
TRACK 13 AUDIO
TITLE "(Never Provide) The Key Of Hell"
PERFORMER "Messiah"
INDEX 01 50:58:13

_________________
Death rules! Metal to all who oppose!


Top
 Profile  
 
 
PostPosted: 26 Jun 2016 
Хиппей (support team)
User avatar
Joined: 30 Jul 2007
Posts: 108030
Lоcаtion: Киев (Kyiv, UA)
Age: 45
Name: Andrey
:thanx:

mirror: Narod l M-Cloud

_________________


Top
 Profile E-mail  
 
 
PostPosted: 26 Jun 2016 
5-speed satisfactor
User avatar
Joined: 16 Feb 2009
Posts: 3619
Lоcаtion: New York, USA
Age: 40
Name: Leonid
Мне свою ссылку не вставлять? Ты уже перелил?

_________________
Death rules! Metal to all who oppose!


Top
 Profile  
 
 
PostPosted: 26 Jun 2016 
Хиппей (support team)
User avatar
Joined: 30 Jul 2007
Posts: 108030
Lоcаtion: Киев (Kyiv, UA)
Age: 45
Name: Andrey
Лёня, я йесть тебья пльохо слишшшшать :vic:
ЧьТО? :lloo:

_________________


Top
 Profile E-mail  
 
 
PostPosted: 26 Jun 2016 
Хиппей (support team)
User avatar
Joined: 30 Jul 2007
Posts: 108030
Lоcаtion: Киев (Kyiv, UA)
Age: 45
Name: Andrey
В первое сообщения не все картинки влезли. Так как там есть и больше 5 и даже около 50 метров сканы :pardon:
Так что смотрим по ссылке на Яди.

Лёне ещё раз спасибо за файлы :thanx:

_________________


Top
 Profile E-mail  
 
 
PostPosted: 27 Jun 2016 
А может смените мне статус?..
User avatar
Joined: 24 Dec 2008
Posts: 621
Age: 44
Name: Дмитрий
Лёня, спасибо!


Top
 Profile  
 
 
PostPosted: 27 Jun 2016 
А может смените мне статус?..
User avatar
Joined: 02 Feb 2009
Posts: 999
Lоcаtion: из Тулы
Age: 44
Name: Максим
а с каких это пор группа стала немецкой? или это про издание диска?

_________________
КМА


Top
 Profile  
 
 
PostPosted: 28 Jun 2016 
Хиппей (support team)
User avatar
Joined: 30 Jul 2007
Posts: 108030
Lоcаtion: Киев (Kyiv, UA)
Age: 45
Name: Andrey
а с каких это пор группа стала немецкой? или это про издание диска?

Сорри, это я с утра сонный тупанул и действительно скопировал на автомате инфу с Дискогса.
Сейчас переделаю :thanx:

_________________


Top
 Profile E-mail  
 
Display posts from previous:  Sort by  
Post new topic Reply to topic  [ 8 posts ] 

All times are UTC + 3 hours


Who is online

Users browsing this forum: No registered users and 2 guests


You cannot post new topics in this forum
You cannot reply to topics in this forum
You cannot edit your posts in this forum
You cannot delete your posts in this forum
You cannot post attachments in this forum

Search for:
Яндекс.Метрика
Powered by phpBB © 2000, 2002, 2005, 2007 phpBB Group