\m/ 80's metal \m/

Информационно-аналитический форум "80 см пыли" (In Search We Trust) "У нас никто никуда не спешит"
Me For You - http://me-4u.com
It is currently 24 Sep 2018

All times are UTC + 3 hours

Spoiler
Chat - temporary registration for foreign users (please leave your application here)







Post new topic Reply to topic  [ 4 posts ] 

Понравилось?
Да 100%  100%  [ 1 ]
Нет 0%  0%  [ 0 ]
Total votes : 1
Author Message
 
PostPosted: 26 Jun 2016 
5-speed satisfactor
User avatar
Joined: 16 Feb 2009
Posts: 3556
Lоcаtion: New York, USA
Age: 40
Name: Leonid
Вот вот этот вот релиз.

Оформите.

5 дней у вас.

https://we.tl/qJMuGL8FZu

1. Extreme Cold Weather - 04:20
2. Enjoy Yourself - 02:26
3. Johannes Paul Der Letzte (Dedicated In Hate To Pope John Paul II) - 04:02
4. Mother Theresa (Dedicated In Love To Mother Theresa) - 01:32
5. Hyper Borea - 05:42
6. Radezky March: We Hate To Be In The Army Now - 02:29
7. Nero - 05:54
8. Hymn To Abramelin / Messiah (Extra Version) / Space Invaders - 07:22
9. Thrashing Madness - 02:16
10. Golden Dawn - 05:57
11. The Last Inferno - 03:11
12. Resurrection - 02:57
13. Olé Perversus - 03:03
14. Powertrash - 01:52
15. Satan's Resurrection - 03:04
16. Antichrist - 04:30
17. Hymn To Abramelin - 02:12
18. Messiah - 02:48
19. Infernal Forces - 03:46
20. Future Aggressor / Total Maniac (First Live-Concert 12/85 CH-Baar) - 10:00

Image Image Image

log
Exact Audio Copy V0.99 prebeta 5 from 4. May 2009

EAC extraction logfile from 30. May 2016, 23:12

Messiah / Extreme Cold Weather

Used drive : PLEXTOR DVDR PX-760A Adapter: 4 ID: 0

Read mode : Secure
Utilize accurate stream : Yes
Defeat audio cache : Yes
Make use of C2 pointers : No

Read offset correction : 30
Overread into Lead-In and Lead-Out : Yes
Fill up missing offset samples with silence : Yes
Delete leading and trailing silent blocks : No
Null samples used in CRC calculations : No
Used interface : Installed external ASPI interface

Used output format : Internal WAV Routines
Sample format : 44.100 Hz; 16 Bit; Stereo


TOC of the extracted CD

Track | Start | Length | Start sector | End sector
---------------------------------------------------------
1 | 0:00.00 | 4:20.09 | 0 | 19508
2 | 4:20.09 | 2:25.74 | 19509 | 30457
3 | 6:46.08 | 4:02.22 | 30458 | 48629
4 | 10:48.30 | 1:31.68 | 48630 | 55522
5 | 12:20.23 | 5:42.01 | 55523 | 81173
6 | 18:02.24 | 2:29.36 | 81174 | 92384
7 | 20:31.60 | 5:53.51 | 92385 | 118910
8 | 26:25.36 | 7:21.56 | 118911 | 152041
9 | 33:47.17 | 2:16.23 | 152042 | 162264
10 | 36:03.40 | 5:57.02 | 162265 | 189041
11 | 42:00.42 | 3:11.02 | 189042 | 203368
12 | 45:11.44 | 2:56.67 | 203369 | 216635
13 | 48:08.36 | 3:03.00 | 216636 | 230360
14 | 51:11.36 | 1:51.48 | 230361 | 238733
15 | 53:03.09 | 3:04.27 | 238734 | 252560
16 | 56:07.36 | 4:30.19 | 252561 | 272829
17 | 60:37.55 | 2:11.58 | 272830 | 282712
18 | 62:49.38 | 2:47.59 | 282713 | 295296
19 | 65:37.22 | 3:46.35 | 295297 | 312281
20 | 69:23.57 | 9:59.72 | 312282 | 357278


Range status and errors

Selected range

Filename C:\Shared\rips\Messiah\Extreme Cold Weather\Messiah - Extreme Cold Weather.wav

Peak level 98.8 %
Range quality 100.0 %
Copy CRC D9A745A7
Copy OK

No errors occurred

End of status report

cue
REM GENRE "Death Metal"
REM DATE 1987
REM DISCID 24129B14
REM COMMENT "ExactAudioCopy v0.99pb5"
PERFORMER "Messiah"
TITLE "Extreme Cold Weather"
FILE "Messiah - Extreme Cold Weather.wav" WAVE
TRACK 01 AUDIO
TITLE "Extreme Cold Weather"
PERFORMER "Messiah"
INDEX 01 00:00:00
TRACK 02 AUDIO
TITLE "Enjoy Yourself"
PERFORMER "Messiah"
INDEX 01 04:20:09
TRACK 03 AUDIO
TITLE "Johannes Paul Der Letzte (Dedicated In Hate To Pope John Paul II)"
PERFORMER "Messiah"
INDEX 01 06:46:08
TRACK 04 AUDIO
TITLE "Mother Theresa (Dedicated In Love To Mother Theresa)"
PERFORMER "Messiah"
INDEX 01 10:48:30
TRACK 05 AUDIO
TITLE "Hyper Borea"
PERFORMER "Messiah"
INDEX 01 12:20:23
TRACK 06 AUDIO
TITLE "Radezky March: We Hate To Be In The Army Now"
PERFORMER "Messiah"
INDEX 01 18:02:24
TRACK 07 AUDIO
TITLE "Nero"
PERFORMER "Messiah"
INDEX 01 20:31:60
TRACK 08 AUDIO
TITLE "Hymn To Abramelin / Messiah (extra version) / Space Invaders"
PERFORMER "Messiah"
INDEX 01 26:25:36
TRACK 09 AUDIO
TITLE "Thrashing Madness"
PERFORMER "Messiah"
INDEX 01 33:47:17
TRACK 10 AUDIO
TITLE "Golden Dawn"
PERFORMER "Messiah"
INDEX 01 36:03:40
TRACK 11 AUDIO
TITLE "The Last Inferno"
PERFORMER "Messiah"
INDEX 01 42:00:42
TRACK 12 AUDIO
TITLE "Resurrection"
PERFORMER "Messiah"
INDEX 01 45:11:44
TRACK 13 AUDIO
TITLE "Olй Perversus"
PERFORMER "Messiah"
INDEX 01 48:08:36
TRACK 14 AUDIO
TITLE "Powerthrash"
PERFORMER "Messiah"
INDEX 01 51:11:36
TRACK 15 AUDIO
TITLE "Satan's Resurrection"
PERFORMER "Messiah"
INDEX 01 53:03:09
TRACK 16 AUDIO
TITLE "Antichrist"
PERFORMER "Messiah"
INDEX 01 56:07:36
TRACK 17 AUDIO
TITLE "Hymn To Abramelin"
PERFORMER "Messiah"
INDEX 01 60:37:55
TRACK 18 AUDIO
TITLE "Messiah"
PERFORMER "Messiah"
INDEX 01 62:49:38
TRACK 19 AUDIO
TITLE "Infernal Forces"
PERFORMER "Messiah"
INDEX 01 65:37:22
TRACK 20 AUDIO
TITLE "Future Agressor / Total Maniac (live)"
PERFORMER "Messiah"
INDEX 01 69:23:57

_________________
Death rules! Metal to all who oppose!


Top
 Profile  
 
 
PostPosted: 27 Jun 2016 
Хиппей (support team)
User avatar
Joined: 30 Jul 2007
Posts: 106508
Lоcаtion: Киев (Kyiv, UA)
Age: 45
Name: Andrey
:thanx:

mirror: Narod l M-Cloud

_________________


Top
 Profile E-mail  
 
 
PostPosted: 27 Jun 2016 
А может смените мне статус?..
User avatar
Joined: 02 Feb 2009
Posts: 997
Lоcаtion: из Тулы
Age: 44
Name: Максим
еще один альбом ШВЕЙЦАРЦЕВ, который пока еще не подогнали фашикам :benya:

_________________
КМА


Top
 Profile  
 
 
PostPosted: 28 Jun 2016 
Хиппей (support team)
User avatar
Joined: 30 Jul 2007
Posts: 106508
Lоcаtion: Киев (Kyiv, UA)
Age: 45
Name: Andrey
еще один альбом ШВЕЙЦАРЦЕВ, который пока еще не подогнали фашикам :benya:

Речь о Германии?

_________________


Top
 Profile E-mail  
 
Display posts from previous:  Sort by  
Post new topic Reply to topic  [ 4 posts ] 

All times are UTC + 3 hours


Who is online

Users browsing this forum: No registered users and 3 guests


You cannot post new topics in this forum
You cannot reply to topics in this forum
You cannot edit your posts in this forum
You cannot delete your posts in this forum
You cannot post attachments in this forum

Search for:
Яндекс.Метрика
cron
Powered by phpBB © 2000, 2002, 2005, 2007 phpBB Group