\m/ 80's metal \m/

Информационно-аналитический форум "80 см пыли" (In Search We Trust) "У нас никто никуда не спешит"
Me For You - http://me-4u.com
It is currently 23 Sep 2018

All times are UTC + 3 hours

Spoiler
Chat - temporary registration for foreign users (please leave your application here)







Post new topic Reply to topic  [ 1 post ] 
Author Message
 
PostPosted: 04 May 2016 
5-speed satisfactor
User avatar
Joined: 16 Feb 2009
Posts: 3556
Lоcаtion: New York, USA
Age: 40
Name: Leonid
https://www.discogs.com/Maleficarum-Acr ... se/1943199
http://www.metal-archives.com/albums/Ma ... vens/17523

cue
REM DISCID 980A460B
REM COMMENT "ExactAudioCopy v1.1"
PERFORMER "Maleficarum"
TITLE "Across the Heavens"
FILE "Maleficarum - Across The Heavens.wav" WAVE
TRACK 01 AUDIO
TITLE "The Raping Of Life"
PERFORMER "Maleficarum"
INDEX 01 00:00:00
TRACK 02 AUDIO
TITLE "Season Of Black"
PERFORMER "Maleficarum"
INDEX 00 02:04:15
INDEX 01 02:05:57
TRACK 03 AUDIO
TITLE "Time I Am"
PERFORMER "Maleficarum"
INDEX 00 06:07:27
INDEX 01 06:09:15
TRACK 04 AUDIO
TITLE "Fallen Worlds"
PERFORMER "Maleficarum"
INDEX 00 09:58:20
INDEX 01 10:00:47
TRACK 05 AUDIO
TITLE "Spirit Magnified"
PERFORMER "Maleficarum"
INDEX 00 14:46:57
INDEX 01 14:48:27
TRACK 06 AUDIO
TITLE "Kingdom Of Lost"
PERFORMER "Maleficarum"
INDEX 00 19:04:60
INDEX 01 19:06:30
TRACK 07 AUDIO
TITLE "Under My Scars"
PERFORMER "Maleficarum"
INDEX 00 23:05:60
INDEX 01 23:09:02
TRACK 08 AUDIO
TITLE "Across The Heavens"
PERFORMER "Maleficarum"
INDEX 00 27:36:54
INDEX 01 27:40:05
TRACK 09 AUDIO
TITLE "Exalted Being"
PERFORMER "Maleficarum"
INDEX 00 29:22:47
INDEX 01 29:24:60
TRACK 10 AUDIO
TITLE "The Forgotten"
PERFORMER "Maleficarum"
INDEX 00 33:03:22
INDEX 01 33:05:45
TRACK 11 AUDIO
TITLE "Unfolded Dimensions"
PERFORMER "Maleficarum"
INDEX 01 37:53:72


log
Exact Audio Copy V1.1 from 23. June 2015

EAC extraction logfile from 3. May 2016, 20:46

Maleficarum / Across the Heavens

Used drive : Private

Read mode : Secure
Utilize accurate stream : Yes
Defeat audio cache : Yes
Make use of C2 pointers : No

Read offset correction : 0
Overread into Lead-In and Lead-Out : No
Fill up missing offset samples with silence : Yes
Delete leading and trailing silent blocks : No
Null samples used in CRC calculations : Yes
Used interface : Native Win32 interface for Win NT & 2000

Used output format : Internal WAV Routines
Sample format : 44.100 Hz; 16 Bit; Stereo


TOC of the extracted CD

Track | Start | Length | Start sector | End sector
---------------------------------------------------------
1 | 0:00.00 | 2:05.57 | 0 | 9431
2 | 2:05.57 | 4:03.33 | 9432 | 27689
3 | 6:09.15 | 3:51.32 | 27690 | 45046
4 | 10:00.47 | 4:47.55 | 45047 | 66626
5 | 14:48.27 | 4:18.03 | 66627 | 85979
6 | 19:06.30 | 4:02.47 | 85980 | 104176
7 | 23:09.02 | 4:31.03 | 104177 | 124504
8 | 27:40.05 | 1:44.55 | 124505 | 132359
9 | 29:24.60 | 3:40.60 | 132360 | 148919
10 | 33:05.45 | 4:48.27 | 148920 | 170546
11 | 37:53.72 | 5:56.18 | 170547 | 197264


Range status and errors

Selected range

Filename C:\Maleficarum - Across the Heavens.wav

Peak level 99.9 %
Extraction speed 1.9 X
Range quality 100.0 %
Copy CRC 42DA1925
Copy OK

No errors occurred

End of status report


Мой metal brother Nieraj Singh спродюсировал альбом.

https://we.tl/ayA5qIAQ1C

_________________
Death rules! Metal to all who oppose!


Top
 Profile  
 
Display posts from previous:  Sort by  
Post new topic Reply to topic  [ 1 post ] 

All times are UTC + 3 hours


Who is online

Users browsing this forum: No registered users and 3 guests


You cannot post new topics in this forum
You cannot reply to topics in this forum
You cannot edit your posts in this forum
You cannot delete your posts in this forum
You cannot post attachments in this forum

Search for:
Яндекс.Метрика
Powered by phpBB © 2000, 2002, 2005, 2007 phpBB Group