\m/ 80's metal \m/

Информационно-аналитический форум "80 см пыли" (In Search We Trust) "У нас никто никуда не спешит"
Me For You - http://me-4u.com
It is currently 23 Sep 2018

All times are UTC + 3 hours

Spoiler
Chat - temporary registration for foreign users (please leave your application here)







Post new topic Reply to topic  [ 5 posts ] 
Author Message
 
PostPosted: 24 Nov 2014 
Пионэръ
User avatar
Joined: 28 Mar 2013
Posts: 20
Lоcаtion: Fresno, California, USA
Age: 29
Name: /
Image

Year: 1991
Style: Thrash Metal
Country: Brazil
Audio: Flac+Cue+Log+Scans
Size: 336MB
Source: Original CD Pressing
Label: Cogumelo


Line-Up:
Christiano Salles - Drums
Jairo Guedz - Guitars, Guitars (Acoustic)
Vladimir Korg - Vocals
Marcelo Diaz - Bass, Keyboards

Tracklist:
1. God of Black and White Images 05:33
2. Scarecrow 04:17
3. Peter Pan Against the World 04:28
4. Falling into My Inner Abyss 03:56
5. The Hangman Tree - Act One 03:57
6. The Hell Where Angels Live/My Life Is an Eternal Dark Room/My Pain 06:37
7. The Hangman Tree - Epilogue 03:42
8. Broken Toys 04:28
9. Leave Me Alone 03:43
10. Toxin Diffusion (Psychic Possessor cover) 03:41

"Cue"
REM GENRE Metal
REM DATE 1992
REM DISCID 7D0A690A
REM COMMENT "ExactAudioCopy v1.0b3"
PERFORMER "The Mist"
TITLE "The Hangman Tree"
FILE "The Mist - The Hangman Tree.wav" WAVE
TRACK 01 AUDIO
TITLE "God of Black And White Images"
PERFORMER "The Mist"
INDEX 01 00:00:00
TRACK 02 AUDIO
TITLE "Scarecrow"
PERFORMER "The Mist"
INDEX 00 05:31:02
INDEX 01 05:33:02
TRACK 03 AUDIO
TITLE "Peter Pan Against The World"
PERFORMER "The Mist"
INDEX 00 09:50:12
INDEX 01 09:50:62
TRACK 04 AUDIO
TITLE "Falling Into My Inner Abyss"
PERFORMER "The Mist"
INDEX 00 14:16:07
INDEX 01 14:18:57
TRACK 05 AUDIO
TITLE "The Hangman Tree - Act One"
PERFORMER "The Mist"
INDEX 00 18:14:15
INDEX 01 18:14:65
TRACK 06 AUDIO
TITLE "Hell Where Angels Live/My Life Is An Eternal Dark Room/My Pain"
PERFORMER "The Mist"
INDEX 00 22:07:40
INDEX 01 22:12:40
TRACK 07 AUDIO
TITLE "The Hangman Tree - Epilogue"
PERFORMER "The Mist"
INDEX 00 28:49:12
INDEX 01 28:49:62
TRACK 08 AUDIO
TITLE "Broken Toys"
PERFORMER "The Mist"
INDEX 00 32:28:72
INDEX 01 32:32:22
TRACK 09 AUDIO
TITLE "Leave Me Alone"
PERFORMER "The Mist"
INDEX 00 36:58:15
INDEX 01 37:00:65
TRACK 10 AUDIO
TITLE "Toxin Diffusion"
PERFORMER "The Mist"
INDEX 00 40:40:27
INDEX 01 40:44:02


"Log"
Exact Audio Copy V1.0 beta 3 from 29. August 2011

Отчёт EAC об извлечении, выполненном 11. сентября 2014, 21:10

The Mist / The Hangman Tree

Дисковод: Optiarc DVD RW AD-7580S Adapter: 0 ID: 1

Режим чтения : Достоверность
Использование точного потока : Да
Отключение кэша аудио : Да
Использование указателей C2 : Нет

Коррекция смещения при чтении : 6
Способность читать области Lead-in и Lead-out : Нет
Заполнение пропущенных сэмплов тишиной : Да
Удаление блоков с тишиной в начале и конце : Нет
При вычислениях CRC использовались нулевые сэмплы : Да
Интерфейс : Встроенный Win32-интерфейс для Win NT/2000

Выходной формат : Внутренние WAV-операции
Формат сэмплов : 44.100 Гц; 16 бит; стерео


TOC извлечённого CD

Трек | Старт | Длительность | Начальный сектор | Конечный сектор
---------------------------------------------------------------------
1 | 0:00.00 | 5:33.02 | 0 | 24976
2 | 5:33.02 | 4:17.60 | 24977 | 44311
3 | 9:50.62 | 4:27.70 | 44312 | 64406
4 | 14:18.57 | 3:56.08 | 64407 | 82114
5 | 18:14.65 | 3:57.50 | 82115 | 99939
6 | 22:12.40 | 6:37.22 | 99940 | 129736
7 | 28:49.62 | 3:42.35 | 129737 | 146421
8 | 32:32.22 | 4:28.43 | 146422 | 166564
9 | 37:00.65 | 3:43.12 | 166565 | 183301
10 | 40:44.02 | 3:41.48 | 183302 | 199924


Характеристики диапазона извлечения и сообщения об ошибках

Выбранный диапазон

Имя файла C:\Program Files (x86)\FLAC Frontend\tools\The Mist - The Hangman Tree.wav

Пиковый уровень 86.5 %
Скорость извлечения 4.1 X
Качество диапазона 100.0 %
CRC теста 66BB61D2
CRC копии 66BB61D2
Копирование... OK

Ошибок не произошло


AccurateRip: сводка

Трек 1 : извлечено точно (доверие 1) [331573DD] (AR v2)
Трек 2 : извлечено точно (доверие 1) [EAF56436] (AR v2)
Трек 3 : извлечено точно (доверие 1) [D3AA6049] (AR v2)
Трек 4 : извлечено точно (доверие 1) [0B8F8A38] (AR v2)
Трек 5 : извлечено точно (доверие 1) [5FFC9ADD] (AR v2)
Трек 6 : извлечено точно (доверие 1) [F0B61196] (AR v2)
Трек 7 : извлечено точно (доверие 1) [41C35C1D] (AR v2)
Трек 8 : извлечено точно (доверие 1) [1778816D] (AR v2)
Трек 9 : извлечено точно (доверие 1) [82BFC1D7] (AR v2)
Трек 10 : извлечено точно (доверие 1) [1ADE3870] (AR v2)

Все треки извлечены точно

Конец отчёта

---- CUETools DB Plugin V2.1.3

[CTDB TOCID: NQKZlJ1B9O3b4ZfwbKgsAY_FGRE-] found, Submit result: NQKZlJ1B9O3b4ZfwbKgsAY_FGRE- has been confirmed
[f22e1d10] (1/1) Accurately ripped


The Hangman Tree


Top
 Profile E-mail  
 
 
PostPosted: 25 Nov 2014 
Доктор энтомологии
User avatar
Joined: 22 Jan 2009
Posts: 9331
Lоcаtion: Даугавпилс
Age: 43
Name: Алексей
:thanx:


Top
 Profile  
 
 
PostPosted: 25 Nov 2014 
Прокъмитолист
User avatar
Joined: 12 Aug 2007
Posts: 6473
Lоcаtion: Санктъ-Петербуркъ
Age: 50
Name: Олекъ
thanks a lot! :thanx:

_________________
прокъметол - это музыко, от которово есть прок (ы)


Top
 Profile  
 
 
PostPosted: 09 Mar 2015 
Работнечег
User avatar
Joined: 28 Aug 2007
Posts: 5409
Lоcаtion: г. Москва
Age: 29
Name: Дима
Спасибо, отличный альбом! :true:


Top
 Profile E-mail  
 
 
PostPosted: 09 Mar 2015 
Персональный статус
User avatar
Joined: 04 Mar 2012
Posts: 237
Lоcаtion: Саратов
Name: Василий
:thanx:


Top
 Profile E-mail  
 
Display posts from previous:  Sort by  
Post new topic Reply to topic  [ 5 posts ] 

All times are UTC + 3 hours


Who is online

Users browsing this forum: No registered users and 2 guests


You cannot post new topics in this forum
You cannot reply to topics in this forum
You cannot edit your posts in this forum
You cannot delete your posts in this forum
You cannot post attachments in this forum

Search for:
Яндекс.Метрика
cron
Powered by phpBB © 2000, 2002, 2005, 2007 phpBB Group