\m/ 80's metal \m/

Информационно-аналитический форум "80 см пыли" (In Search We Trust) "У нас никто никуда не спешит"
Me For You - http://me-4u.com
It is currently 21 Nov 2018

All times are UTC + 3 hours

Spoiler
Chat - temporary registration for foreign users (please leave your application here)







Post new topic Reply to topic  [ 5 posts ] 
Author Message
 
PostPosted: 24 Nov 2014 
Пионэръ
User avatar
Joined: 28 Mar 2013
Posts: 20
Lоcаtion: Fresno, California, USA
Age: 29
Name: /
Image

Year: 1993
Style: Thrash Metal
Country: Brazil
Audio: Flac+Cue+Log+Scans
Size: 268MB
Source: Original CD Pressing
Label: Cogumelo


Line-Up:
Christiano Salles - Drums
Jairo Guedz - Guitars
Marcelo Diaz - Bass, Vocals

Tracklist:
1. Cross Child 05:06
2. Escape to the Arms of Lord 03:32
3. Disaster 06:46
4. Blind 04:01
5. Naked Lunch 05:07
6. Hate 02:53
7. 99 Dead (Wonderland) 06:32

"Cue"
REM GENRE "Thrash Metal"
REM DATE 1993
REM DISCID 5B07F707
REM COMMENT "ExactAudioCopy v1.0b3"
PERFORMER "The Mist"
TITLE "...Ashes to Ashes, Dust to Dust..."
FILE "The Mist - ...Ashes to Ashes, Dust to Dust....wav" WAVE
TRACK 01 AUDIO
TITLE "Cross Child"
PERFORMER "The Mist"
INDEX 01 00:00:00
TRACK 02 AUDIO
TITLE "Escape to the arms of lord"
PERFORMER "The Mist"
INDEX 01 05:06:35
TRACK 03 AUDIO
TITLE "Disaster"
PERFORMER "The Mist"
INDEX 01 08:38:52
TRACK 04 AUDIO
TITLE "Blind"
PERFORMER "The Mist"
INDEX 01 15:24:70
TRACK 05 AUDIO
TITLE "Naked Lunch"
PERFORMER "The Mist"
INDEX 01 19:26:55
TRACK 06 AUDIO
TITLE "Hate"
PERFORMER "The Mist"
INDEX 01 24:34:17
TRACK 07 AUDIO
TITLE "99 Dead (Wonderland)"
PERFORMER "The Mist"
INDEX 01 27:27:20


"Log"
Exact Audio Copy V1.0 beta 3 from 29. August 2011

Отчёт EAC об извлечении, выполненном 21. ноября 2012, 22:20

The Mist / ...Ashes to Ashes, Dust to Dust...

Дисковод: Optiarc DVD RW AD-7261S Adapter: 4 ID: 0

Режим чтения : Достоверность
Использование точного потока : Да
Отключение кэша аудио : Да
Использование указателей C2 : Нет

Коррекция смещения при чтении : 48
Способность читать области Lead-in и Lead-out : Нет
Заполнение пропущенных сэмплов тишиной : Да
Удаление блоков с тишиной в начале и конце : Нет
При вычислениях CRC использовались нулевые сэмплы : Да
Интерфейс : Встроенный Win32-интерфейс для Win NT/2000

Выходной формат : Внутренние WAV-операции
Формат сэмплов : 44.100 Гц; 16 бит; стерео


TOC извлечённого CD

Трек | Старт | Длительность | Начальный сектор | Конечный сектор
---------------------------------------------------------------------
1 | 0:00.00 | 5:06.35 | 0 | 22984
2 | 5:06.35 | 3:32.17 | 22985 | 38901
3 | 8:38.52 | 6:46.18 | 38902 | 69369
4 | 15:24.70 | 4:01.60 | 69370 | 87504
5 | 19:26.55 | 5:07.37 | 87505 | 110566
6 | 24:34.17 | 2:53.03 | 110567 | 123544
7 | 27:27.20 | 6:32.05 | 123545 | 152949


Характеристики диапазона извлечения и сообщения об ошибках

Выбранный диапазон

Имя файла C:\Users\Demon\Documents\The Mist - ...Ashes to Ashes, Dust to Dust....wav

Пиковый уровень 100.0 %
Скорость извлечения 3.5 X
Качество диапазона 100.0 %
CRC теста E37ECFBB
CRC копии E37ECFBB
Копирование... OK

Ошибок не произошло


AccurateRip: сводка

Трек 1 отсутствует в базе данных
Трек 2 отсутствует в базе данных
Трек 3 отсутствует в базе данных
Трек 4 отсутствует в базе данных
Трек 5 отсутствует в базе данных
Трек 6 отсутствует в базе данных
Трек 7 отсутствует в базе данных

Ни одного трека нет в базе AccurateRip

Конец отчёта


...Ashes to Ashes, Dust to Dust...


Top
 Profile E-mail  
 
 
PostPosted: 24 Nov 2014 
Доктор энтомологии
User avatar
Joined: 22 Jan 2009
Posts: 9450
Lоcаtion: Даугавпилс
Age: 43
Name: Алексей
:thanx:


Top
 Profile  
 
 
PostPosted: 25 Nov 2014 
Прокъмитолист
User avatar
Joined: 12 Aug 2007
Posts: 6504
Lоcаtion: Санктъ-Петербуркъ
Age: 51
Name: Олекъ
thanks! :thanx:

_________________
прокъметол - это музыко, от которово есть прок (ы)


Top
 Profile  
 
 
PostPosted: 14 Mar 2015 
Работнечег
User avatar
Joined: 28 Aug 2007
Posts: 5557
Lоcаtion: г. Москва
Age: 29
Name: Дима
:thanx:


Top
 Profile E-mail  
 
 
PostPosted: 14 Mar 2015 
спирт 100%
User avatar
Joined: 22 Sep 2008
Posts: 4314
Age: 47
Name: Саня
Спасибо! :thanx:


Top
 Profile  
 
Display posts from previous:  Sort by  
Post new topic Reply to topic  [ 5 posts ] 

All times are UTC + 3 hours


Who is online

Users browsing this forum: No registered users and 3 guests


You cannot post new topics in this forum
You cannot reply to topics in this forum
You cannot edit your posts in this forum
You cannot delete your posts in this forum
You cannot post attachments in this forum

Search for:
Яндекс.Метрика
Powered by phpBB © 2000, 2002, 2005, 2007 phpBB Group