\m/ 80's metal \m/

Информационно-аналитический форум "80 см пыли" (In Search We Trust) "У нас никто никуда не спешит"
Me For You - http://me-4u.com
It is currently 15 Nov 2018

All times are UTC + 3 hours

Spoiler
Chat - temporary registration for foreign users (please leave your application here)







Post new topic Reply to topic  [ 5 posts ] 
Author Message
 
PostPosted: 18 Nov 2014 
Генеральный thrasher
User avatar
Joined: 03 Oct 2008
Posts: 3498
Lоcаtion: Ханты-Мансийский АО
Age: 43
Name: Сергей
Image

Year:2004
Style:Death/Thrash Metal
Country:Germany
Audio:Flac+Cue+Log+Scans
Size:447Mb
Source:my CD
Label:Self-Released

Line-Up:
Rudi - bass
John Uhle - drums
Igor - guitars
Enrico Wiechert - guitars
Michael Morgenstern - vocals

Tracklist:
01. Enter New Spheres 03:59
02. DNA - Key of Life 04:30
03. No Trust 05:07
04. Vault of Torment 05:21
05. Warriors of God 05:41
06. After The War 02:42
07. I Am the Lord 04:52
08. Voices 04:42
09. The Last Prayer 04:25
10. Welcome to Eternity 07:06
11. Within the Mind (Death cover) 05:48

"Cue"
REM GENRE "Thrash Metal"
REM DATE 2003
REM DISCID 890CB90B
REM COMMENT "ExactAudioCopy v0.99pb5"
PERFORMER "Moshquito"
TITLE "Enter New Spheres"
FILE "Moshquito - Enter New Spheres.flac" WAVE
TRACK 01 AUDIO
TITLE "Enter New Spheres"
PERFORMER "Moshquito"
FLAGS DCP
INDEX 01 00:00:00
TRACK 02 AUDIO
TITLE "DNA Key Of Life"
PERFORMER "Moshquito"
FLAGS DCP
INDEX 01 03:59:57
TRACK 03 AUDIO
TITLE "No Trust"
PERFORMER "Moshquito"
FLAGS DCP
INDEX 01 08:29:57
TRACK 04 AUDIO
TITLE "Vault Of Torment"
PERFORMER "Moshquito"
FLAGS DCP
INDEX 01 13:37:10
TRACK 05 AUDIO
TITLE "Warriors Of God"
PERFORMER "Moshquito"
FLAGS DCP
INDEX 01 18:58:39
TRACK 06 AUDIO
TITLE "After The War"
PERFORMER "Moshquito"
FLAGS DCP
INDEX 01 24:40:16
TRACK 07 AUDIO
TITLE "I Am The Lord"
PERFORMER "Moshquito"
FLAGS DCP
INDEX 01 27:23:09
TRACK 08 AUDIO
TITLE "Voices"
PERFORMER "Moshquito"
FLAGS DCP
INDEX 01 32:15:26
TRACK 09 AUDIO
TITLE "The Last Prayer"
PERFORMER "Moshquito"
FLAGS DCP
INDEX 01 36:57:47
TRACK 10 AUDIO
TITLE "Welcome To Eternity"
PERFORMER "Moshquito"
FLAGS DCP
INDEX 01 41:23:00
TRACK 11 AUDIO
TITLE "Within The Mind"
PERFORMER "Moshquito"
FLAGS DCP
INDEX 01 48:29:10

"Log"
Exact Audio Copy V0.99 prebeta 5 from 4. May 2009

Отчёт EAC об извлечении, выполненном 22. февраля 2013, 11:41

Moshquito / Enter New Spheres

Дисковод: TSSTcorpCDDVDW SH-S202N Adapter: 0 ID: 1

Режим чтения : Достоверность
Использование точного потока : Да
Отключение кэша аудио : Да
Использование указателей C2 : Нет

Коррекция смещения при чтении : 6
Способность читать области Lead-in и Lead-out : Нет
Заполнение пропущенных сэмплов тишиной : Да
Удаление блоков с тишиной в начале и конце : Нет
При вычислениях CRC использовались нулевые сэмплы : Да
Интерфейс : Встроенный Win32-интерфейс для Win NT/2000

Выходной формат : Пользовательский кодировщик
Выбранный битрейт : 768 kBit/s
Качество : Высокий
Добавление ID3-тэга : Нет
Утилита сжатия : C:\Program Files\Exact Audio Copy\FLAC\FLAC.EXE
Дополнительные параметры : -6 -V -T "ARTIST=%a" -T "TITLE=%t" -T "ALBUM=%g" -T "DATE=%y" -T "TRACKNUMBER=%n" -T "GENRE=%m" -T "COMMENT=%e" %s -o %d


TOC извлечённого CD

Трек | Старт | Длительность | Начальный сектор | Конечный сектор
---------------------------------------------------------------------
1 | 0:00.00 | 3:59.57 | 0 | 17981
2 | 3:59.57 | 4:30.00 | 17982 | 38231
3 | 8:29.57 | 5:07.28 | 38232 | 61284
4 | 13:37.10 | 5:21.29 | 61285 | 85388
5 | 18:58.39 | 5:41.52 | 85389 | 111015
6 | 24:40.16 | 2:42.68 | 111016 | 123233
7 | 27:23.09 | 4:52.17 | 123234 | 145150
8 | 32:15.26 | 4:42.21 | 145151 | 166321
9 | 36:57.47 | 4:25.28 | 166322 | 186224
10 | 41:23.00 | 7:06.10 | 186225 | 218184
11 | 48:29.10 | 5:48.40 | 218185 | 244324


Характеристики диапазона извлечения и сообщения об ошибках

Выбранный диапазон

Имя файла D:\Lossless Music\Moshquito - Enter New Spheres.wav

Пиковый уровень 99.9 %
Качество диапазона 100.0 %
CRC копии 8027F213
Копирование... OK

Ошибок не произошло


AccurateRip: сводка

Трек 1 нет в базе данных
Трек 2 нет в базе данных
Трек 3 нет в базе данных
Трек 4 нет в базе данных
Трек 5 нет в базе данных
Трек 6 нет в базе данных
Трек 7 нет в базе данных
Трек 8 нет в базе данных
Трек 9 нет в базе данных
Трек 10 нет в базе данных
Трек 11 нет в базе данных

Ни одного трека нет в базе AccurateRip

Конец отчёта


Enter New Spheres


Top
 Profile  
 
 
PostPosted: 07 Dec 2014 
Работнечег
User avatar
Joined: 28 Aug 2007
Posts: 5511
Lоcаtion: г. Москва
Age: 29
Name: Дима
:thanx:


Top
 Profile E-mail  
 
 
PostPosted: 08 Dec 2014 
Генеральный thrasher
User avatar
Joined: 03 Oct 2008
Posts: 3498
Lоcаtion: Ханты-Мансийский АО
Age: 43
Name: Сергей
Есть ещё Secrets (1998).Раздаю на трэкере.Если надо,могу сюда в бухту закинуть.


Top
 Profile  
 
 
PostPosted: 13 Jan 2015 
Alive Again
User avatar
Joined: 17 Dec 2008
Posts: 4740
Lоcаtion: Курск Воронеж Оскол
Age: 44
Name: Дмитрий
:thanx:


Top
 Profile E-mail  
 
 
PostPosted: 14 Jan 2015 
Работнечег
User avatar
Joined: 28 Aug 2007
Posts: 5511
Lоcаtion: г. Москва
Age: 29
Name: Дима
Есть ещё Secrets (1998).Раздаю на трэкере.Если надо,могу сюда в бухту закинуть.

Пока не надо, Серег! Я честно пока токо отрывками послушал, не могу сказать, что сильно зацепило..


Top
 Profile E-mail  
 
Display posts from previous:  Sort by  
Post new topic Reply to topic  [ 5 posts ] 

All times are UTC + 3 hours


Who is online

Users browsing this forum: No registered users and 1 guest


You cannot post new topics in this forum
You cannot reply to topics in this forum
You cannot edit your posts in this forum
You cannot delete your posts in this forum
You cannot post attachments in this forum

Search for:
Яндекс.Метрика
Powered by phpBB © 2000, 2002, 2005, 2007 phpBB Group