\m/ 80's metal \m/

Информационно-аналитический форум "80 см пыли" (In Search We Trust) "У нас никто никуда не спешит"
Me For You - http://me-4u.com
It is currently 15 Nov 2018

All times are UTC + 3 hours

Spoiler
Chat - temporary registration for foreign users (please leave your application here)







Post new topic Reply to topic  [ 7 posts ] 
Author Message
 
PostPosted: 13 Oct 2014 
Генеральный thrasher
User avatar
Joined: 03 Oct 2008
Posts: 3497
Lоcаtion: Ханты-Мансийский АО
Age: 43
Name: Сергей
Image

Year:1993 (2005 Re-Issue)
Style:Thrash Metal
Country:Brazil
Audio:Flac+Cue+Log+Scans
Size:550Mb
Source:my CD
Label:Marquee Records

Line-Up:
Môa - vocals
Max - guitars
Marlos - guitars
Gustavo - bass
Junior 106 - drums

Tracklist:
01. Rigor Mortis 04:05
02. Hopeless 04:30
03. Witness ( Desolation Of My Generation ) 05:20
04. Human Degradation 04:00
05. You Die ( Nothing To Say ) 05:41
06. The Creep In My Grave 06:00
07. Dead Gods 05:36
08. Ratkill 02:55
09. Warfare (Demo '88) 06:12
10. Thrashing Assault (Demo '88) 07:16
11. You Die ( Nothing To Say ) (Demo '90) 06:05
12. The Creep In My Grave (Demo '90) 06:05
13. Witness ( Desolation Of My Generation ) (Demo '90) 05:48
14. Human Degradation (Demo '90) 04:12
15. Tortura '87 (Special Rehearsal '05)

"Cue"
REM GENRE "Thrash Metal"
REM DATE 2005
REM DISCID CF12890F
REM COMMENT "ExactAudioCopy v0.99pb5"
PERFORMER "Morfeus"
TITLE "Disbelieved World"
FILE "Morfeus - Disbelieved World.flac" WAVE
TRACK 01 AUDIO
TITLE "Rigor Mortis"
PERFORMER "Morfeus"
INDEX 01 00:00:00
TRACK 02 AUDIO
TITLE "Hopeless"
PERFORMER "Morfeus"
INDEX 00 04:05:42
INDEX 01 04:07:42
TRACK 03 AUDIO
TITLE "Witness"
PERFORMER "Morfeus"
INDEX 00 08:38:13
INDEX 01 08:40:13
TRACK 04 AUDIO
TITLE "Human Degradation"
PERFORMER "Morfeus"
INDEX 00 14:00:55
INDEX 01 14:02:55
TRACK 05 AUDIO
TITLE "You Die"
PERFORMER "Morfeus"
INDEX 00 18:03:29
INDEX 01 18:05:29
TRACK 06 AUDIO
TITLE "The Creep In My Grave"
PERFORMER "Morfeus"
INDEX 00 23:46:58
INDEX 01 23:48:58
TRACK 07 AUDIO
TITLE "Dead Gods"
PERFORMER "Morfeus"
INDEX 00 29:49:00
INDEX 01 29:51:00
TRACK 08 AUDIO
TITLE "Ratkill"
PERFORMER "Morfeus"
INDEX 00 35:27:18
INDEX 01 35:29:18
TRACK 09 AUDIO
TITLE "Warfare ( Demo 88 )"
PERFORMER "Morfeus"
INDEX 00 38:24:24
INDEX 01 38:26:24
TRACK 10 AUDIO
TITLE "Thrashing Assaut ( Demo 88 )"
PERFORMER "Morfeus"
INDEX 00 44:38:48
INDEX 01 44:40:48
TRACK 11 AUDIO
TITLE "You Die ( Nothing to Say ) - ( Demo 90 )"
PERFORMER "Morfeus"
INDEX 00 51:57:39
INDEX 01 51:59:39
TRACK 12 AUDIO
TITLE "The Creep in my Grave ( Demo 90 )"
PERFORMER "Morfeus"
INDEX 00 58:05:29
INDEX 01 58:07:29
TRACK 13 AUDIO
TITLE "Witness ( Desolation of my Generation ) - ( Demo 90 )"
PERFORMER "Morfeus"
INDEX 00 64:13:09
INDEX 01 64:15:09
TRACK 14 AUDIO
TITLE "Human Degradation ( Demo 90 )"
PERFORMER "Morfeus"
INDEX 00 70:03:69
INDEX 01 70:05:69
TRACK 15 AUDIO
TITLE "Tortura 87 ( Special Rehearsal 2005 )"
PERFORMER "Morfeus"
INDEX 00 74:18:04
INDEX 01 74:20:04

"Log"
Exact Audio Copy V0.99 prebeta 5 from 4. May 2009

Отчёт EAC об извлечении, выполненном 30. июля 2013, 18:42

Morfeus / Disbelieved World

Дисковод: MATSHITADVD-RAM UJ8A0AS Adapter: 0 ID: 1

Режим чтения : Достоверность
Использование точного потока : Да
Отключение кэша аудио : Да
Использование указателей C2 : Нет

Коррекция смещения при чтении : 102
Способность читать области Lead-in и Lead-out : Нет
Заполнение пропущенных сэмплов тишиной : Да
Удаление блоков с тишиной в начале и конце : Нет
При вычислениях CRC использовались нулевые сэмплы : Да
Интерфейс : Встроенный Win32-интерфейс для Win NT/2000

Выходной формат : Пользовательский кодировщик
Выбранный битрейт : 1024 kBit/s
Качество : Высокий
Добавление ID3-тэга : Нет
Утилита сжатия : C:\Program Files\Exact Audio Copy\FLAC\FLAC.EXE
Дополнительные параметры : -6 -V -T "ARTIST=%a" -T "TITLE=%t" -T "ALBUM=%g" -T "DATE=%y" -T "TRACKNUMBER=%n" -T "GENRE=%m" -T "COMMENT=%e" %s -o %d


TOC извлечённого CD

Трек | Старт | Длительность | Начальный сектор | Конечный сектор
---------------------------------------------------------------------
1 | 0:00.00 | 4:07.42 | 0 | 18566
2 | 4:07.42 | 4:32.46 | 18567 | 39012
3 | 8:40.13 | 5:22.42 | 39013 | 63204
4 | 14:02.55 | 4:02.49 | 63205 | 81403
5 | 18:05.29 | 5:43.29 | 81404 | 107157
6 | 23:48.58 | 6:02.17 | 107158 | 134324
7 | 29:51.00 | 5:38.18 | 134325 | 159692
8 | 35:29.18 | 2:57.06 | 159693 | 172973
9 | 38:26.24 | 6:14.24 | 172974 | 201047
10 | 44:40.48 | 7:18.66 | 201048 | 233963
11 | 51:59.39 | 6:07.65 | 233964 | 261553
12 | 58:07.29 | 6:07.55 | 261554 | 289133
13 | 64:15.09 | 5:50.60 | 289134 | 315443
14 | 70:05.69 | 4:14.10 | 315444 | 334503
15 | 74:20.04 | 4:45.17 | 334504 | 355895


Характеристики диапазона извлечения и сообщения об ошибках

Выбранный диапазон

Имя файла C:\Users\эксперт\Music\Morfeus - Disbelieved World.wav

Пиковый уровень 99.9 %
Качество диапазона 100.0 %
CRC копии 7D457FC5
Копирование... OK

Ошибок не произошло


AccurateRip: сводка

Трек 1 нет в базе данных
Трек 2 нет в базе данных
Трек 3 нет в базе данных
Трек 4 нет в базе данных
Трек 5 нет в базе данных
Трек 6 нет в базе данных
Трек 7 нет в базе данных
Трек 8 нет в базе данных
Трек 9 нет в базе данных
Трек 10 нет в базе данных
Трек 11 нет в базе данных
Трек 12 нет в базе данных
Трек 13 нет в базе данных
Трек 14 нет в базе данных
Трек 15 нет в базе данных

Ни одного трека нет в базе AccurateRip

Конец отчёта


Disbelieved World

Единственный полнометражник бразилов.Группа активна,может что-нибудь и выпустят ещё...


Top
 Profile  
 
 
PostPosted: 13 Oct 2014 
Прокъмитолист
User avatar
Joined: 12 Aug 2007
Posts: 6503
Lоcаtion: Санктъ-Петербуркъ
Age: 51
Name: Олекъ
спасибо! :thanx:

_________________
прокъметол - это музыко, от которово есть прок (ы)


Top
 Profile  
 
 
PostPosted: 13 Oct 2014 
А может смените мне статус?..
User avatar
Joined: 28 Jul 2008
Posts: 907
Lоcаtion: Украина---Днепропетровск
Age: 44
Name: Александр
:thanx:

_________________
Музыка в которой я растворяюсь многих угнетает......


Top
 Profile  
 
 
PostPosted: 13 Oct 2014 
Дежурный по КУПу
User avatar
Joined: 17 Aug 2007
Posts: 5869
Age: 50
Name: Ге
:thanx:

_________________
http://jp-mania.ru/
http://jp-tourdates.ucoz.ru/


Top
 Profile  
 
 
PostPosted: 13 Oct 2014 
Хиппей (support team)
User avatar
Joined: 30 Jul 2007
Posts: 108009
Lоcаtion: Киев (Kyiv, UA)
Age: 45
Name: Andrey
:thanx:

mirror: Narod l M-Cloud

_________________


Top
 Profile E-mail  
 
 
PostPosted: 14 Oct 2014 
Хиппей (support team)
User avatar
Joined: 30 Jul 2007
Posts: 108009
Lоcаtion: Киев (Kyiv, UA)
Age: 45
Name: Andrey
Ранний Слауер в исполнении бразильских богоснов понравился :meloman:

6+/10

Им бы еще хоть немного своего, кроме продолжительных гитарных запилов чего-то добавить...

_________________


Top
 Profile E-mail  
 
 
PostPosted: 14 Oct 2014 
А может смените мне статус?..
User avatar
Joined: 02 Feb 2009
Posts: 999
Lоcаtion: из Тулы
Age: 44
Name: Максим
спасибо Серег
хотел искать винил, теперь послушаю сначала

_________________
КМА


Top
 Profile  
 
Display posts from previous:  Sort by  
Post new topic Reply to topic  [ 7 posts ] 

All times are UTC + 3 hours


Who is online

Users browsing this forum: No registered users and 2 guests


You cannot post new topics in this forum
You cannot reply to topics in this forum
You cannot edit your posts in this forum
You cannot delete your posts in this forum
You cannot post attachments in this forum

Search for:
Яндекс.Метрика
Powered by phpBB © 2000, 2002, 2005, 2007 phpBB Group