\m/ 80's metal \m/

Информационно-аналитический форум "80 см пыли" (In Search We Trust) "У нас никто никуда не спешит"
Me For You - http://me-4u.com
It is currently 15 Nov 2018

All times are UTC + 3 hours

Spoiler
Chat - temporary registration for foreign users (please leave your application here)







Post new topic Reply to topic  [ 18 posts ] 
Author Message
 
PostPosted: 03 Jul 2014 
Работнечег
User avatar
Joined: 28 Aug 2007
Posts: 5511
Lоcаtion: г. Москва
Age: 29
Name: Дима
Image

Year: 2000
Label: AFM Records
Country: Netherlands
Style: Heavy Metal
Format: Flac+Cue+Log+Covers
Size: 532 Mb

Line-Up:
Fonny Janssen - Drums
Joss Mennen - Vocals
Alex Jansen - Bass
Eric Van De Kerkhof - Guitars


Tracklist:
1. One Man Show 05:01
2. Killerdog 04:20
3. Circle of Life 03:36
4. War 05:11
5. School 05:56
6. The Age of Fools 04:59
7. River of Tears 05:42
8. Trojan Horse 04:04
9. World Affair 07:14
10. Love Or Loneliness 04:03
11. Homeless 05:48
12. Destination Unknown 04:28
13. Back to the Real World 09:58

LOG
Exact Audio Copy V0.99 prebeta 5 from 4. May 2009

EAC extraction logfile from 19. June 2014, 23:46

Mennen / Circle Of Live

Used drive : PIONEER DVD-RW DVR-116D Adapter: 0 ID: 0

Read mode : Secure
Utilize accurate stream : Yes
Defeat audio cache : Yes
Make use of C2 pointers : No

Read offset correction : 96
Overread into Lead-In and Lead-Out : No
Fill up missing offset samples with silence : Yes
Delete leading and trailing silent blocks : No
Null samples used in CRC calculations : Yes
Used interface : Native Win32 interface for Win NT & 2000

Used output format : User Defined Encoder
Selected bitrate : 32 kBit/s
Quality : High
Add ID3 tag : No
Command line compressor : C:\Program Files\Exact Audio Copy\Flac\flac.exe
Additional command line options : -6 -V %s


TOC of the extracted CD

Track | Start | Length | Start sector | End sector
---------------------------------------------------------
1 | 0:00.00 | 5:01.16 | 0 | 22590
2 | 5:01.16 | 4:20.00 | 22591 | 42090
3 | 9:21.16 | 3:35.72 | 42091 | 58287
4 | 12:57.13 | 5:11.00 | 58288 | 81612
5 | 18:08.13 | 5:56.04 | 81613 | 108316
6 | 24:04.17 | 4:59.33 | 108317 | 130774
7 | 29:03.50 | 5:42.37 | 130775 | 156461
8 | 34:46.12 | 4:03.73 | 156462 | 174759
9 | 38:50.10 | 7:13.44 | 174760 | 207278
10 | 46:03.54 | 4:03.33 | 207279 | 225536
11 | 50:07.12 | 5:47.74 | 225537 | 251635
12 | 55:55.11 | 4:27.72 | 251636 | 271732
13 | 60:23.08 | 9:58.09 | 271733 | 316591


Range status and errors

Selected range

Filename D:\Музыка\Lossless\Mennen - Circle Of Live (2000)\Mennen - Circle Of Live.wav

Peak level 96.1 %
Range quality 98.3 %
Copy CRC CDD06FFB
Copy finished

There were errors


AccurateRip summary

Track 1 not present in database
Track 2 not present in database
Track 3 not present in database
Track 4 not present in database
Track 5 not present in database
Track 6 not present in database
Track 7 not present in database
Track 8 not present in database
Track 9 not present in database
Track 10 not present in database
Track 11 not present in database
Track 12 not present in database
Track 13 not present in database

None of the tracks are present in the AccurateRip database

End of status report

CUE
REM GENRE "Heavy Metal"
REM DATE 1994
REM DISCID B5107D0D
REM COMMENT "ExactAudioCopy v0.99pb5"
PERFORMER "Mennen"
TITLE "Circle Of Live"
FILE "Mennen - Circle Of Live.flac" WAVE
TRACK 01 AUDIO
TITLE "One Man Show"
PERFORMER "Mennen"
INDEX 01 00:00:00
TRACK 02 AUDIO
TITLE "Killerdog"
PERFORMER "Mennen"
INDEX 01 05:01:16
TRACK 03 AUDIO
TITLE "Circle Of Life"
PERFORMER "Mennen"
INDEX 01 09:21:16
TRACK 04 AUDIO
TITLE "War"
PERFORMER "Mennen"
INDEX 01 12:57:13
TRACK 05 AUDIO
TITLE "School"
PERFORMER "Mennen"
INDEX 01 18:08:13
TRACK 06 AUDIO
TITLE "The Age Of Fools"
PERFORMER "Mennen"
INDEX 01 24:04:17
TRACK 07 AUDIO
TITLE "River Of Tears"
PERFORMER "Mennen"
INDEX 01 29:03:50
TRACK 08 AUDIO
TITLE "Trojan Horse"
PERFORMER "Mennen"
INDEX 01 34:46:12
TRACK 09 AUDIO
TITLE "World Affair"
PERFORMER "Mennen"
INDEX 01 38:50:10
TRACK 10 AUDIO
TITLE "Love Or Loneliness"
PERFORMER "Mennen"
INDEX 01 46:03:54
TRACK 11 AUDIO
TITLE "Homeless"
PERFORMER "Mennen"
INDEX 01 50:07:12
TRACK 12 AUDIO
TITLE "Destination Unknown"
PERFORMER "Mennen"
INDEX 01 55:55:11
TRACK 13 AUDIO
TITLE "Back To The Real World"
PERFORMER "Mennen"
INDEX 01 60:23:08


FLAC

Приятный концертник с отличным треклистом :true:


Top
 Profile E-mail  
 
 
PostPosted: 04 Jul 2014 
Прокъмитолист
User avatar
Joined: 12 Aug 2007
Posts: 6504
Lоcаtion: Санктъ-Петербуркъ
Age: 51
Name: Олекъ
:thanx:

_________________
прокъметол - это музыко, от которово есть прок (ы)


Top
 Profile  
 
 
PostPosted: 04 Jul 2014 
спирт 100%
User avatar
Joined: 22 Sep 2008
Posts: 4312
Age: 47
Name: Саня
:thanx: Спасибо !


Top
 Profile  
 
 
PostPosted: 04 Jul 2014 
Прокъмитолист
User avatar
Joined: 12 Aug 2007
Posts: 6504
Lоcаtion: Санктъ-Петербуркъ
Age: 51
Name: Олекъ
Димк, а задник отсутствует или просто забыл отсканить? :oops:

_________________
прокъметол - это музыко, от которово есть прок (ы)


Top
 Profile  
 
 
PostPosted: 04 Jul 2014 
Хиппей (support team)
User avatar
Joined: 30 Jul 2007
Posts: 108029
Lоcаtion: Киев (Kyiv, UA)
Age: 45
Name: Andrey
:thanx:

Narod l M-Cloud

_________________


Top
 Profile E-mail  
 
 
PostPosted: 05 Jul 2014 
Работнечег
User avatar
Joined: 28 Aug 2007
Posts: 5511
Lоcаtion: г. Москва
Age: 29
Name: Дима
Димк, а задник отсутствует или просто забыл отсканить? :oops:

Там диджипак, я честно забыл его отсканить) буду еще сканить что-нибудь и задник сделаю)


Top
 Profile E-mail  
 
 
PostPosted: 05 Jul 2014 
Хиппей (support team)
User avatar
Joined: 30 Jul 2007
Posts: 108029
Lоcаtion: Киев (Kyiv, UA)
Age: 45
Name: Andrey
...чёт вспомнился анекдот, как дедушка из анекдота в 43-м ногу забыл... вернее, потерял... :oops:

_________________


Top
 Profile E-mail  
 
 
PostPosted: 05 Jul 2014 
Mechanix
User avatar
Joined: 05 Sep 2007
Posts: 477
Lоcаtion: Ekaterinodar
Age: 45
Name: Alexey
Scatterbrain очень добрый :crazy:

_________________
Image
Image


Top
 Profile  
 
 
PostPosted: 05 Jul 2014 
Хиппей (support team)
User avatar
Joined: 30 Jul 2007
Posts: 108029
Lоcаtion: Киев (Kyiv, UA)
Age: 45
Name: Andrey
А олени лучше :crazy: :thanx:


Лёш, я пока вместо задника авку твою сюда стырю, ага?

Image

Взято отседовля

_________________


Top
 Profile E-mail  
 
 
PostPosted: 05 Jul 2014 
Mechanix
User avatar
Joined: 05 Sep 2007
Posts: 477
Lоcаtion: Ekaterinodar
Age: 45
Name: Alexey
Scatterbrain
тырь тырь, тебе можно! пираты форева! :true:

_________________
Image
Image


Top
 Profile  
 
 
PostPosted: 05 Jul 2014 
Хиппей (support team)
User avatar
Joined: 30 Jul 2007
Posts: 108029
Lоcаtion: Киев (Kyiv, UA)
Age: 45
Name: Andrey
Пасибо, всё мы круги жизни в какой-то мере :thanx:

Image

_________________


Top
 Profile E-mail  
 
 
PostPosted: 19 Jul 2014 
Работнечег
User avatar
Joined: 28 Aug 2007
Posts: 5511
Lоcаtion: г. Москва
Age: 29
Name: Дима
Задничек:
Image


Top
 Profile E-mail  
 
 
PostPosted: 19 Jul 2014 
Alive Again
User avatar
Joined: 17 Dec 2008
Posts: 4740
Lоcаtion: Курск Воронеж Оскол
Age: 44
Name: Дмитрий
:thanx:


Top
 Profile E-mail  
 
 
PostPosted: 19 Jul 2014 
Хиппей (support team)
User avatar
Joined: 30 Jul 2007
Posts: 108029
Lоcаtion: Киев (Kyiv, UA)
Age: 45
Name: Andrey
:thanx:

_________________


Top
 Profile E-mail  
 
 
PostPosted: 17 Jul 2017 
DarkSage
User avatar
Joined: 24 Sep 2009
Posts: 925
Lоcаtion: Moscow
Name: Оксана
Quote:
M-Cloud


Вот я о чём говорила когда-то - ссылка отключилась,
архив то жив, надо только найти его и поменять на новую ссылку.

За альбом :thanx: релизёру

_________________
Image,Image


Top
 Profile E-mail  
 
 
PostPosted: 20 Jul 2017 
Работнечег
User avatar
Joined: 28 Aug 2007
Posts: 5511
Lоcаtion: г. Москва
Age: 29
Name: Дима
Оксан, решила пройтись по старым релизам? :smile:


Top
 Profile E-mail  
 
 
PostPosted: 21 Jul 2017 
DarkSage
User avatar
Joined: 24 Sep 2009
Posts: 925
Lоcаtion: Moscow
Name: Оксана
Так периодически круговорот, куда же без них :ok:

_________________
Image,Image


Top
 Profile E-mail  
 
 
PostPosted: 22 Sep 2017 
Хиппей (support team)
User avatar
Joined: 30 Jul 2007
Posts: 108029
Lоcаtion: Киев (Kyiv, UA)
Age: 45
Name: Andrey
Quote:
M-Cloud


Вот я о чём говорила когда-то - ссылка отключилась,
архив то жив, надо только найти его и поменять на новую ссылку.

Поменято на новый вид ссылки и включено :thanx:

_________________


Top
 Profile E-mail  
 
Display posts from previous:  Sort by  
Post new topic Reply to topic  [ 18 posts ] 

All times are UTC + 3 hours


Who is online

Users browsing this forum: No registered users and 1 guest


You cannot post new topics in this forum
You cannot reply to topics in this forum
You cannot edit your posts in this forum
You cannot delete your posts in this forum
You cannot post attachments in this forum

Search for:
Яндекс.Метрика
Powered by phpBB © 2000, 2002, 2005, 2007 phpBB Group