\m/ 80's metal \m/

Информационно-аналитический форум "80 см пыли" (In Search We Trust) "У нас никто никуда не спешит"
Me For You - http://me-4u.com
It is currently 15 Nov 2018

All times are UTC + 3 hours

Spoiler
Chat - temporary registration for foreign users (please leave your application here)







Post new topic Reply to topic  [ 6 posts ] 
Author Message
 
PostPosted: 20 Feb 2014 
Partisanen - nicht kapitulieren!!
User avatar
Joined: 25 Dec 2011
Posts: 6755
Lоcаtion: партизанские леса
Age: 46
Name: Владимир
Mercyful Fate 1999 - 9
[VICP-60730/Japanese Edition]

Image
Band: Mercyful Fate
Album: 9
Year: 1999
Label: Metal Blade Records [VICP-60730/Japanese Edition]
Genre: Heavy Metal
Country: Denmark
Format: Flac (tracks+log)
Size: 293.8 МБ
Scans: нет

утянуто с ваты

Tracklist:
01. Last Rites (04:13)
02. Church Of Saint Anne (04:45)
03. Sold My Soul (05:04)
04. House On The Hill (03:43)
05. Burn In Hell (03:50)
06. The Grave (04:10)
07. Insane (03:01)
08. Kiss The Demon (03:53)
09. Buried Alive (04:42)
10. 9 (04:39)
11. S.H. (02:22)


EAC log
Code:
Exact Audio Copy V1.0 beta 3 from 29. August 2011

EAC extraction logfile from 24. March 2013, 12:43

Mercyful Fate / 9

Used drive  : HL-DT-STBD-RE  BH10LS30   Adapter: 0  ID: 0

Read mode               : Secure
Utilize accurate stream : Yes
Defeat audio cache      : Yes
Make use of C2 pointers : No

Read offset correction                      : 667
Overread into Lead-In and Lead-Out          : No
Fill up missing offset samples with silence : Yes
Delete leading and trailing silent blocks   : No
Null samples used in CRC calculations       : Yes
Used interface                              : Native Win32 interface for Win NT & 2000
Gap handling                                : Appended to previous track

Used output format              : User Defined Encoder
Selected bitrate                : 1024 kBit/s
Quality                         : High
Add ID3 tag                     : No
Command line compressor         : C:\Program Files HDD\Exact Audio Copy\Flac\flac.exe
Additional command line options : -8 -V -T "ARTIST=%artist%" -T "TITLE=%title%" -T "ALBUM=%albumtitle%" -T "DATE=%year%" -T "TRACKNUMBER=%tracknr%" -T "GENRE=%genre%" -T "PERFORMER=%albuminterpret%" -T "COMPOSER=%composer%" %haslyrics%--tag-from-file=LYRICS="%lyricsfile%"%haslyrics% -T "ALBUMARTIST=%albumartist%" -T "DISCNUMBER=%cdnumber%" -T "TOTALDISCS=%totalcds%" -T "TOTALTRACKS=%numtracks%" -T "COMMENT=%comment%" %source% -o %dest%


TOC of the extracted CD

     Track |   Start  |  Length  | Start sector | End sector
    ---------------------------------------------------------
        1  |  0:00.00 |  4:12.52 |         0    |    18951   
        2  |  4:12.52 |  4:44.55 |     18952    |    40306   
        3  |  8:57.32 |  5:04.18 |     40307    |    63124   
        4  | 14:01.50 |  3:43.17 |     63125    |    79866   
        5  | 17:44.67 |  3:49.40 |     79867    |    97081   
        6  | 21:34.32 |  4:09.55 |     97082    |   115811   
        7  | 25:44.12 |  3:01.28 |    115812    |   129414   
        8  | 28:45.40 |  3:53.35 |    129415    |   146924   
        9  | 32:39.00 |  4:41.40 |    146925    |   168039   
       10  | 37:20.40 |  4:38.72 |    168040    |   188961   
       11  | 41:59.37 |  2:22.00 |    188962    |   199611   


Track  1

     Filename C:\Storage\Downloads\EAC Rips\Mercyful Fate - 9 [1999]\01. Last Rites.wav

     Pre-gap length  0:00:02.00

     Peak level 97.3 %
     Extraction speed 1.1 X
     Track quality 100.0 %
     Test CRC E5874397
     Copy CRC E5874397
     Accurately ripped (confidence 1)  [A3FE54F2]  (AR v1)
     Copy OK

Track  2

     Filename C:\Storage\Downloads\EAC Rips\Mercyful Fate - 9 [1999]\02. Church Of Saint Anne.wav

     Pre-gap length  0:00:02.12

     Peak level 96.6 %
     Extraction speed 1.2 X
     Track quality 100.0 %
     Test CRC 5714CE7A
     Copy CRC 5714CE7A
     Accurately ripped (confidence 1)  [F920250F]  (AR v1)
     Copy OK

Track  3

     Filename C:\Storage\Downloads\EAC Rips\Mercyful Fate - 9 [1999]\03. Sold My Soul.wav

     Peak level 100.0 %
     Extraction speed 1.4 X
     Track quality 100.0 %
     Test CRC 34D453F1
     Copy CRC 34D453F1
     Accurately ripped (confidence 1)  [2F5CA6D1]  (AR v1)
     Copy OK

Track  4

     Filename C:\Storage\Downloads\EAC Rips\Mercyful Fate - 9 [1999]\04. House On The Hill.wav

     Pre-gap length  0:00:03.25

     Peak level 100.0 %
     Extraction speed 1.4 X
     Track quality 100.0 %
     Test CRC 0A0FD60D
     Copy CRC 0A0FD60D
     Accurately ripped (confidence 1)  [8A4C1158]  (AR v1)
     Copy OK

Track  5

     Filename C:\Storage\Downloads\EAC Rips\Mercyful Fate - 9 [1999]\05. Burn In Hell.wav

     Pre-gap length  0:00:00.41

     Peak level 100.0 %
     Extraction speed 1.5 X
     Track quality 100.0 %
     Test CRC C335CD87
     Copy CRC C335CD87
     Accurately ripped (confidence 1)  [6E6CEB33]  (AR v1)
     Copy OK

Track  6

     Filename C:\Storage\Downloads\EAC Rips\Mercyful Fate - 9 [1999]\06. The Grave.wav

     Pre-gap length  0:00:01.25

     Peak level 99.9 %
     Extraction speed 1.6 X
     Track quality 100.0 %
     Test CRC 0BE7EDCB
     Copy CRC 0BE7EDCB
     Accurately ripped (confidence 1)  [4B4AA14C]  (AR v1)
     Copy OK

Track  7

     Filename C:\Storage\Downloads\EAC Rips\Mercyful Fate - 9 [1999]\07. Insane.wav

     Pre-gap length  0:00:01.88

     Peak level 98.1 %
     Extraction speed 1.6 X
     Track quality 100.0 %
     Test CRC B177CE5C
     Copy CRC B177CE5C
     Accurately ripped (confidence 1)  [A3C46042]  (AR v1)
     Copy OK

Track  8

     Filename C:\Storage\Downloads\EAC Rips\Mercyful Fate - 9 [1999]\08. Kiss The Demon.wav

     Pre-gap length  0:00:03.22

     Peak level 100.0 %
     Extraction speed 1.8 X
     Track quality 100.0 %
     Test CRC E936EF9F
     Copy CRC E936EF9F
     Accurately ripped (confidence 1)  [D27B7F14]  (AR v1)
     Copy OK

Track  9

     Filename C:\Storage\Downloads\EAC Rips\Mercyful Fate - 9 [1999]\09. Buried Alive.wav

     Pre-gap length  0:00:02.05

     Peak level 100.0 %
     Extraction speed 1.7 X
     Track quality 99.9 %
     Test CRC 767A7E6D
     Copy CRC 767A7E6D
     Accurately ripped (confidence 1)  [3A858649]  (AR v1)
     Copy OK

Track 10

     Filename C:\Storage\Downloads\EAC Rips\Mercyful Fate - 9 [1999]\10. 9.wav

     Peak level 98.2 %
     Extraction speed 2.0 X
     Track quality 100.0 %
     Test CRC D194327A
     Copy CRC D194327A
     Accurately ripped (confidence 1)  [23F1C8F5]  (AR v1)
     Copy OK

Track 11

     Filename C:\Storage\Downloads\EAC Rips\Mercyful Fate - 9 [1999]\11. S.H..wav

     Pre-gap length  0:00:09.34

     Peak level 55.2 %
     Extraction speed 1.8 X
     Track quality 100.0 %
     Test CRC 87DBD5B1
     Copy CRC 87DBD5B1
     Accurately ripped (confidence 1)  [EA15EC81]  (AR v1)
     Copy OK


All tracks accurately ripped

No errors occurred

End of status report

==== Log checksum 06A951DB6CD950D16BEFF8E81EB884CD6FAC1D5606FB72523F9D3F416BF15DE6 ====

Spectrum
Image Image Image



mail.ru : rusfolder

_________________
One more beer and Heavy Metal and I'm just fine!
старовер, куле... слово "блин" - до сих пор через Ъ говорю


Top
 Profile E-mail  
 
 
PostPosted: 20 Feb 2014 
Alive Again
User avatar
Joined: 17 Dec 2008
Posts: 4740
Lоcаtion: Курск Воронеж Оскол
Age: 44
Name: Дмитрий
:thanx:


Top
 Profile E-mail  
 
 
PostPosted: 21 Feb 2014 
Хиппей (support team)
User avatar
Joined: 30 Jul 2007
Posts: 108007
Lоcаtion: Киев (Kyiv, UA)
Age: 45
Name: Andrey
:thanx:

mirror: Narod l M-Cloud

_________________


Top
 Profile E-mail  
 
 
PostPosted: 21 Feb 2014 
5-speed satisfactor
User avatar
Joined: 16 Feb 2009
Posts: 3619
Lоcаtion: New York, USA
Age: 40
Name: Leonid
:thanx:

_________________
Death rules! Metal to all who oppose!


Top
 Profile  
 
 
PostPosted: 21 Feb 2014 
Дежурный по КУПу
User avatar
Joined: 17 Aug 2007
Posts: 5869
Age: 50
Name: Ге
:thanx:

_________________
http://jp-mania.ru/
http://jp-tourdates.ucoz.ru/


Top
 Profile  
 
 
PostPosted: 21 Feb 2014 
Power Metal Maniac
User avatar
Joined: 09 Aug 2008
Posts: 6351
Lоcаtion: Москва
Age: 40
Name: Егор
:true: :thanx:

_________________
Long Live Metal!


Top
 Profile  
 
Display posts from previous:  Sort by  
Post new topic Reply to topic  [ 6 posts ] 

All times are UTC + 3 hours


Who is online

Users browsing this forum: No registered users and 1 guest


You cannot post new topics in this forum
You cannot reply to topics in this forum
You cannot edit your posts in this forum
You cannot delete your posts in this forum
You cannot post attachments in this forum

Search for:
Яндекс.Метрика
Powered by phpBB © 2000, 2002, 2005, 2007 phpBB Group