\m/ 80's metal \m/

Информационно-аналитический форум "80 см пыли" (In Search We Trust) "У нас никто никуда не спешит"
Me For You - http://me-4u.com
It is currently 15 Nov 2018

All times are UTC + 3 hours

Spoiler
Chat - temporary registration for foreign users (please leave your application here)







Post new topic Reply to topic  [ 10 posts ] 
Author Message
 
PostPosted: 08 Jan 2014 
Работнечег
User avatar
Joined: 28 Aug 2007
Posts: 5507
Lоcаtion: г. Москва
Age: 29
Name: Дима
Image

Label: Active Records
Genre: Thrash Metal
Country: Sweden
Format: Flac + Log + Cue + Covers
Size: 273 Mb

Line-Up:
Staffe Karlsson - Guitars
Zebba Karlsson - Guitars
Steffe Karlsson - Drums
Uffe Pettersson - Vocals (ex-Rosicrucian)
Conny Welén - Bass (ex-Hexenhaus)


Tracklist:
1. Then Came the Killing 03:39
2. Ancient Terror 04:27
3. The Final Holocaust 04:52
4. Frozen Soul 04:01
5. Distant Death 03:55
6. Prevention Necessary 04:52
7. Where Death Begins 03:56
8. The Cross of Torment 04:19

LOG
Exact Audio Copy V0.99 prebeta 5 from 4. May 2009

EAC extraction logfile from 15. December 2013, 22:41

Mezzrow / Then Came The Killing

Used drive : PIONEER DVD-RW DVR-116D Adapter: 0 ID: 0

Read mode : Secure
Utilize accurate stream : Yes
Defeat audio cache : Yes
Make use of C2 pointers : No

Read offset correction : 96
Overread into Lead-In and Lead-Out : No
Fill up missing offset samples with silence : Yes
Delete leading and trailing silent blocks : No
Null samples used in CRC calculations : Yes
Used interface : Native Win32 interface for Win NT & 2000

Used output format : User Defined Encoder
Selected bitrate : 32 kBit/s
Quality : High
Add ID3 tag : No
Command line compressor : C:\Program Files\Exact Audio Copy\Flac\flac.exe
Additional command line options : -6 -V %s


TOC of the extracted CD

Track | Start | Length | Start sector | End sector
---------------------------------------------------------
1 | 0:00.32 | 3:41.05 | 32 | 16611
2 | 3:41.37 | 4:30.23 | 16612 | 36884
3 | 8:11.60 | 4:53.27 | 36885 | 58886
4 | 13:05.12 | 4:03.50 | 58887 | 77161
5 | 17:08.62 | 3:55.48 | 77162 | 94834
6 | 21:04.35 | 4:53.37 | 94835 | 116846
7 | 25:57.72 | 3:58.60 | 116847 | 134756
8 | 29:56.57 | 4:15.30 | 134757 | 153911
9 | 34:12.12 | 5:34.63 | 153912 | 179024


Range status and errors

Selected range

Filename D:\Музыка\Lossless\Mezzrow - Then Came The Killing (1992)\Mezzrow - Then Came The Killing.wav

Peak level 100.0 %
Range quality 99.9 %
Copy CRC F854B258
Copy OK

No errors occurred


AccurateRip summary

Track 1 accurately ripped (confidence 7) [CA15A52D]
Track 2 accurately ripped (confidence 7) [1DB7F6E4]
Track 3 accurately ripped (confidence 7) [A574D048]
Track 4 accurately ripped (confidence 7) [52748120]
Track 5 accurately ripped (confidence 7) [9C09932A]
Track 6 accurately ripped (confidence 7) [E30225F2]
Track 7 accurately ripped (confidence 7) [F1ADC7F8]
Track 8 accurately ripped (confidence 7) [824BF03A]
Track 9 accurately ripped (confidence 7) [548F7C27]

All tracks accurately ripped

End of status report

CUE
REM GENRE "Thrash Metal"
REM DATE 1990
REM DISCID 7A095309
REM COMMENT "ExactAudioCopy v0.99pb5"
PERFORMER "Mezzrow"
TITLE "Then Came The Killing"
FILE "Mezzrow - Then Came The Killing.flac" WAVE
TRACK 01 AUDIO
TITLE "Then Came The Killing"
PERFORMER "Mezzrow"
INDEX 00 00:00:00
INDEX 01 00:00:32
TRACK 02 AUDIO
TITLE "Ancient Terror"
PERFORMER "Mezzrow"
INDEX 00 03:40:72
INDEX 01 03:41:37
TRACK 03 AUDIO
TITLE "The Final Holocaust"
PERFORMER "Mezzrow"
INDEX 00 08:11:20
INDEX 01 08:11:60
TRACK 04 AUDIO
TITLE "Frozen Soul"
PERFORMER "Mezzrow"
INDEX 00 13:04:12
INDEX 01 13:05:12
TRACK 05 AUDIO
TITLE "Distant Death"
PERFORMER "Mezzrow"
INDEX 00 17:06:55
INDEX 01 17:08:62
TRACK 06 AUDIO
TITLE "Prevention Necessary"
PERFORMER "Mezzrow"
INDEX 00 21:04:12
INDEX 01 21:04:35
TRACK 07 AUDIO
TITLE "Where Death Begins"
PERFORMER "Mezzrow"
INDEX 00 25:57:25
INDEX 01 25:57:72
TRACK 08 AUDIO
TITLE "The Cross Of Torment"
PERFORMER "Mezzrow"
INDEX 00 29:56:00
INDEX 01 29:56:57
TRACK 09 AUDIO
TITLE "Inner Devastation"
PERFORMER "Mezzrow"
INDEX 00 34:11:57
INDEX 01 34:12:12


Rusfolder

phpBB [youtube]


Top
 Profile E-mail  
 
 
PostPosted: 08 Jan 2014 
Генеральный thrasher
User avatar
Joined: 03 Oct 2008
Posts: 3496
Lоcаtion: Ханты-Мансийский АО
Age: 43
Name: Сергей
Блин,Димка,сколько отдал?Офигенный альбом! :thanx:


Top
 Profile  
 
 
PostPosted: 08 Jan 2014 
Хиппей (support team)
User avatar
Joined: 30 Jul 2007
Posts: 108005
Lоcаtion: Киев (Kyiv, UA)
Age: 45
Name: Andrey
:thanx:

mirror: Narod l M-Cloud

Поначалу было прочёл название как... Merzbow :crazy:

_________________


Top
 Profile E-mail  
 
 
PostPosted: 08 Jan 2014 
Работнечег
User avatar
Joined: 28 Aug 2007
Posts: 5507
Lоcаtion: г. Москва
Age: 29
Name: Дима
Блин,Димка,сколько отдал?Офигенный альбом! :thanx:

немецкий ебэй в помощь)) 14 евро + пересылка :true:


Top
 Profile E-mail  
 
 
PostPosted: 08 Jan 2014 
Доктор энтомологии
User avatar
Joined: 22 Jan 2009
Posts: 9448
Lоcаtion: Даугавпилс
Age: 43
Name: Алексей
:true: :thanx:
Альбом, как помнится, хороший, лет 10ть назад слушал. По-началу думал давно на название глядя, вдруг - Deathrow, в Швецию иммигрировавшие :fingal:
Освежу полость памяти :dance:


Last edited by Entomologist on 08 Jan 2014, edited 1 time in total.

Top
 Profile  
 
 
PostPosted: 08 Jan 2014 
\m/ 80 см сала \m/
User avatar
Joined: 12 Mar 2012
Posts: 2589
Age: 25
Name: Nick
:thanx:

_________________
1990 AUROPHON BRAINSTORM (Germany) - lossless
1994 MAUSOLEUM CLASSIX (Belgium-Germany) - lossless
1998 VA - GRIM HARVEST - Complete Metal Massacre Volumes I-XII


Top
 Profile  
 
 
PostPosted: 08 Jan 2014 
Дежурный по КУПу
User avatar
Joined: 17 Aug 2007
Posts: 5869
Age: 50
Name: Ге
:true: :thanx:

_________________
http://jp-mania.ru/
http://jp-tourdates.ucoz.ru/


Top
 Profile  
 
 
PostPosted: 08 Jan 2014 
Доктор энтомологии
User avatar
Joined: 22 Jan 2009
Posts: 9448
Lоcаtion: Даугавпилс
Age: 43
Name: Алексей
вродь и поизъезженно всё всякими, но до чего вкусно слажено, просто класс как вкусно :meloman: наверное дело в винтажности и в отсутствии пластика. свойственного новым цифровым одноразовым коллективам, которые трудно переваривать


Top
 Profile  
 
 
PostPosted: 09 Jan 2014 
А может смените мне статус?..
User avatar
Joined: 24 Sep 2012
Posts: 856
Lоcаtion: Нижегородская обл.
Age: 48
Name: Вячеслав
Замечательный альбом, регулярно его переслушиваю! :meloman: Дмитрий огромное спасибо! :drink:

_________________
Image


Top
 Profile E-mail  
 
 
PostPosted: 10 Jan 2014 
Хиппей (support team)
User avatar
Joined: 30 Jul 2007
Posts: 108005
Lоcаtion: Киев (Kyiv, UA)
Age: 45
Name: Andrey
Уже и так и не так и еще вот так :slo: и иначе слушал альбом и туда и сюда и скорость сбавлял и добавлял и даже пытался сам подвывать. Но... всё тщетно. Всё равно получалась очень средненькая шведская копия ансамбля Testament, который, как ни странно, поначалу сам являлся копией другой известной группы.
Но там хоть вокал Чака Билли спасал ситуацию, а здесь даже не то что ни единый трэк не запоминается с альбома, но и какой-то рифф, проигрыш, припев, вставка там некая или лязг интересный... или солячок :oops:
Как-то пресно, серо, блекло, беззубо и нарядно, как новогодняя йолка в мусорном баке :pardon:

3/10 :(

_________________


Top
 Profile E-mail  
 
Display posts from previous:  Sort by  
Post new topic Reply to topic  [ 10 posts ] 

All times are UTC + 3 hours


Who is online

Users browsing this forum: No registered users and 4 guests


You cannot post new topics in this forum
You cannot reply to topics in this forum
You cannot edit your posts in this forum
You cannot delete your posts in this forum
You cannot post attachments in this forum

Search for:
Яндекс.Метрика
Powered by phpBB © 2000, 2002, 2005, 2007 phpBB Group