\m/ 80's metal \m/

Информационно-аналитический форум "80 см пыли" (In Search We Trust) "У нас никто никуда не спешит"
Me For You - http://me-4u.com
It is currently 15 Nov 2018

All times are UTC + 3 hours

Spoiler
Chat - temporary registration for foreign users (please leave your application here)







Post new topic Reply to topic  [ 7 posts ] 
Author Message
 
PostPosted: 16 Sep 2013 
Работнечег
User avatar
Joined: 28 Aug 2007
Posts: 5507
Lоcаtion: г. Москва
Age: 29
Name: Дима
Image

Year: 1997
Label: Nightmare Records
Country: USA
Style: Heavy Metal
Format: Flac+Cue+Log+Covers/Mp3@320 + Covers
Size: 291 Mb + 94 Mb

Line-Up:
Mike McCloskey - Bass
Zane Petersen - Drums (Scream at the Sun, Solna, ex-Inflict, ex-Conditioned Response)
Jimmy Cassidy - Guitars
Paul Petrick - Vocals


Tracklist:
1. Move On 03:49
2. Mission Of Mercy 03:22
3. Between The Lines 04:01
4. B.D.G.V. 03:23
5. In Disguise (Be Prepared To Meet Your Maker 04:48
6. We Are Rolling 03:28
7. Biography 03:18
8. G.K.O. (Remix '97) 04:40
9. Lesson Learned 03:18
10. Greetings 02:44

LOG
Exact Audio Copy V0.99 prebeta 5 from 4. May 2009

EAC extraction logfile from 17. August 2013, 22:13

Malicious / From Cradle To Grave

Used drive : PIONEER DVD-RW DVR-116D Adapter: 0 ID: 0

Read mode : Secure
Utilize accurate stream : Yes
Defeat audio cache : Yes
Make use of C2 pointers : No

Read offset correction : 96
Overread into Lead-In and Lead-Out : No
Fill up missing offset samples with silence : Yes
Delete leading and trailing silent blocks : No
Null samples used in CRC calculations : Yes
Used interface : Native Win32 interface for Win NT & 2000

Used output format : User Defined Encoder
Selected bitrate : 32 kBit/s
Quality : High
Add ID3 tag : No
Command line compressor : C:\Program Files\Exact Audio Copy\Flac\flac.exe
Additional command line options : -6 -V %s


TOC of the extracted CD

Track | Start | Length | Start sector | End sector
---------------------------------------------------------
1 | 0:00.00 | 3:49.15 | 0 | 17189
2 | 3:49.15 | 3:22.13 | 17190 | 32352
3 | 7:11.28 | 4:00.65 | 32353 | 50417
4 | 11:12.18 | 3:23.11 | 50418 | 65653
5 | 14:35.29 | 4:47.67 | 65654 | 87245
6 | 19:23.21 | 3:28.25 | 87246 | 102870
7 | 22:51.46 | 3:18.24 | 102871 | 117744
8 | 26:09.70 | 4:39.74 | 117745 | 138743
9 | 30:49.69 | 3:17.41 | 138744 | 153559
10 | 34:07.35 | 2:44.26 | 153560 | 165885


Range status and errors

Selected range

Filename D:\Музыка\Lossless\Malicious - From Cradle To Grave (1997) flac\Malicious - From Cradle To Grave.wav

Peak level 99.4 %
Range quality 100.0 %
Copy CRC DF0A6E7E
Copy OK

No errors occurred


AccurateRip summary

Track 1 not present in database
Track 2 not present in database
Track 3 not present in database
Track 4 not present in database
Track 5 not present in database
Track 6 not present in database
Track 7 not present in database
Track 8 not present in database
Track 9 not present in database
Track 10 not present in database

None of the tracks are present in the AccurateRip database

End of status report

CUE
REM GENRE "Heavy/Power Metal"
REM DATE 1997
REM DISCID 8008A30A
REM COMMENT "ExactAudioCopy v0.99pb5"
PERFORMER "Malicious"
TITLE "From Cradle To Grave"
FILE "Malicious - From Cradle To Grave.flac" WAVE
TRACK 01 AUDIO
TITLE "Move On"
PERFORMER "Malicious"
FLAGS DCP
INDEX 01 00:00:00
TRACK 02 AUDIO
TITLE "Mission Of Mercy"
PERFORMER "Malicious"
FLAGS DCP
INDEX 01 03:49:15
TRACK 03 AUDIO
TITLE "Between The Lines"
PERFORMER "Malicious"
FLAGS DCP
INDEX 01 07:11:28
TRACK 04 AUDIO
TITLE "B.D.G.V."
PERFORMER "Malicious"
FLAGS DCP
INDEX 01 11:12:18
TRACK 05 AUDIO
TITLE "In Disquise"
PERFORMER "Malicious"
FLAGS DCP
INDEX 01 14:35:29
TRACK 06 AUDIO
TITLE "We Are Rolling"
PERFORMER "Malicious"
FLAGS DCP
INDEX 01 19:23:21
TRACK 07 AUDIO
TITLE "Biography"
PERFORMER "Malicious"
FLAGS DCP
INDEX 01 22:51:46
TRACK 08 AUDIO
TITLE "G.K.O. (Remix '97)"
PERFORMER "Malicious"
FLAGS DCP
INDEX 01 26:09:70
TRACK 09 AUDIO
TITLE "Lesson Learned"
PERFORMER "Malicious"
FLAGS DCP
INDEX 00 30:48:24
INDEX 01 30:49:69
TRACK 10 AUDIO
TITLE "Greetings"
PERFORMER "Malicious"
FLAGS DCP
INDEX 01 34:07:35


FLAC
MP3@320 kbps

За предоставленный альбом говорим спасибо Сашке spryt777! Фронт обложка немного испорчена маркером) По музыке это довольно жесткий хэви) Мне понравилось, и продолжительность альбома всего 36 минут, что также идет ему на пользу)


Top
 Profile E-mail  
 
 
PostPosted: 16 Sep 2013 
Я набрал 1000 сообщений!
User avatar
Joined: 25 Dec 2008
Posts: 1545
Age: 43
Name: Павел
Кстати, их первый альбом был только на кассете и недавно был переиздан:
http://www.metal-archives.com/albums/Ma ... ous/294371
Я где-то читал, что там вообще чуть ли не хард-рок. Кто-нибудь знает наверняка?


Top
 Profile  
 
 
PostPosted: 16 Sep 2013 
Работнечег
User avatar
Joined: 28 Aug 2007
Posts: 5507
Lоcаtion: г. Москва
Age: 29
Name: Дима
phpBB [youtube]


Top
 Profile E-mail  
 
 
PostPosted: 16 Sep 2013 
Генеральный thrasher
User avatar
Joined: 03 Oct 2008
Posts: 3496
Lоcаtion: Ханты-Мансийский АО
Age: 43
Name: Сергей
Кто-такие не знаю...Но спасибо за знакомство,Дим!


Top
 Profile  
 
 
PostPosted: 16 Sep 2013 
спирт 100%
User avatar
Joined: 22 Sep 2008
Posts: 4312
Age: 47
Name: Саня
Дим,Спасибо! :thanx:


Top
 Profile  
 
 
PostPosted: 17 Sep 2013 
Alive Again
User avatar
Joined: 17 Dec 2008
Posts: 4740
Lоcаtion: Курск Воронеж Оскол
Age: 44
Name: Дмитрий
:thanx:


Top
 Profile E-mail  
 
 
PostPosted: 30 Nov 2013 
Доктор энтомологии
User avatar
Joined: 22 Jan 2009
Posts: 9448
Lоcаtion: Даугавпилс
Age: 43
Name: Алексей
:thanx:


Top
 Profile  
 
Display posts from previous:  Sort by  
Post new topic Reply to topic  [ 7 posts ] 

All times are UTC + 3 hours


Who is online

Users browsing this forum: No registered users and 4 guests


You cannot post new topics in this forum
You cannot reply to topics in this forum
You cannot edit your posts in this forum
You cannot delete your posts in this forum
You cannot post attachments in this forum

Search for:
Яндекс.Метрика
cron
Powered by phpBB © 2000, 2002, 2005, 2007 phpBB Group