\m/ 80's metal \m/

Информационно-аналитический форум "80 см пыли" (In Search We Trust) "У нас никто никуда не спешит"
Me For You - http://me-4u.com
It is currently 21 Nov 2018

All times are UTC + 3 hours

Spoiler
Chat - temporary registration for foreign users (please leave your application here)







Post new topic Reply to topic  [ 9 posts ] 
Author Message
 
PostPosted: 05 Sep 2013 
Генеральный thrasher
User avatar
Joined: 03 Oct 2008
Posts: 3510
Lоcаtion: Ханты-Мансийский АО
Age: 43
Name: Сергей
Image

Year:1999
Style:Thrash Metal
Country:Brazil
Audio:Flac+Cue+Log+Scans
Size:319Mb
Label:Self-Released
Source:my CD

Line-Up:
Alexandre - drums,vocals
Morto - bass
Dumbo - guitars
C.M. - guitars

Tracklist:
01. The Last File 01:47
02. The World is Dying 04:02
03. Not Against My Will 03:31
04. Mad Labyrinth 03:42
05. Gagged By The Fear 03:14
06. After Death 04:11
07. Cut Off Heads 03:01
08. Tropical Virus 03:37
09. Proscription of The Lost 03:32
10. This War Is Yours 04:16
11. Dead Green 02:54
12. The Daughter of The Bitch 02:13

"Cue
REM GENRE "Thrash Metal"
REM DATE 1999
REM DISCID 8509650C
REM COMMENT "ExactAudioCopy v0.99pb5"
PERFORMER "MX"
TITLE "The Last File"
FILE "MX - The Last File.flac" WAVE
TRACK 01 AUDIO
TITLE "The Last File"
PERFORMER "MX"
INDEX 01 00:00:00
TRACK 02 AUDIO
TITLE "The World Is Dying"
PERFORMER "MX"
INDEX 01 01:47:47
TRACK 03 AUDIO
TITLE "Not Against My Will"
PERFORMER "MX"
INDEX 01 05:49:72
TRACK 04 AUDIO
TITLE "Mad Labyrinth"
PERFORMER "MX"
INDEX 01 09:21:00
TRACK 05 AUDIO
TITLE "Gagged By The Fear"
PERFORMER "MX"
INDEX 01 13:03:25
TRACK 06 AUDIO
TITLE "After Death"
PERFORMER "MX"
INDEX 01 16:18:40
TRACK 07 AUDIO
TITLE "Cut Off Heads"
PERFORMER "MX"
INDEX 01 20:29:70
TRACK 08 AUDIO
TITLE "Tropical Virus"
PERFORMER "MX"
INDEX 01 23:31:67
TRACK 09 AUDIO
TITLE "Proscription Of The Lost"
PERFORMER "MX"
INDEX 01 27:09:00
TRACK 10 AUDIO
TITLE "The War Is Yours"
PERFORMER "MX"
INDEX 01 30:41:70
TRACK 11 AUDIO
TITLE "Dead Green"
PERFORMER "MX"
INDEX 01 34:58:02
TRACK 12 AUDIO
TITLE "The Daughter Of The Bitch"
PERFORMER "MX"
INDEX 01 37:52:22

"Log"
Exact Audio Copy V0.99 prebeta 5 from 4. May 2009

Отчёт EAC об извлечении, выполненном 30. июля 2013, 12:16

MX / The Last File

Дисковод: MATSHITADVD-RAM UJ8A0AS Adapter: 0 ID: 1

Режим чтения : Достоверность
Использование точного потока : Да
Отключение кэша аудио : Да
Использование указателей C2 : Нет

Коррекция смещения при чтении : 102
Способность читать области Lead-in и Lead-out : Нет
Заполнение пропущенных сэмплов тишиной : Да
Удаление блоков с тишиной в начале и конце : Нет
При вычислениях CRC использовались нулевые сэмплы : Да
Интерфейс : Встроенный Win32-интерфейс для Win NT/2000

Выходной формат : Пользовательский кодировщик
Выбранный битрейт : 1024 kBit/s
Качество : Высокий
Добавление ID3-тэга : Нет
Утилита сжатия : C:\Program Files\Exact Audio Copy\FLAC\FLAC.EXE
Дополнительные параметры : -6 -V -T "ARTIST=%a" -T "TITLE=%t" -T "ALBUM=%g" -T "DATE=%y" -T "TRACKNUMBER=%n" -T "GENRE=%m" -T "COMMENT=%e" %s -o %d


TOC извлечённого CD

Трек | Старт | Длительность | Начальный сектор | Конечный сектор
---------------------------------------------------------------------
1 | 0:00.00 | 1:47.47 | 0 | 8071
2 | 1:47.47 | 4:02.25 | 8072 | 26246
3 | 5:49.72 | 3:31.03 | 26247 | 42074
4 | 9:21.00 | 3:42.25 | 42075 | 58749
5 | 13:03.25 | 3:15.15 | 58750 | 73389
6 | 16:18.40 | 4:11.30 | 73390 | 92244
7 | 20:29.70 | 3:01.72 | 92245 | 105891
8 | 23:31.67 | 3:37.08 | 105892 | 122174
9 | 27:09.00 | 3:32.70 | 122175 | 138144
10 | 30:41.70 | 4:16.07 | 138145 | 157351
11 | 34:58.02 | 2:54.20 | 157352 | 170421
12 | 37:52.22 | 2:13.18 | 170422 | 180414


Характеристики диапазона извлечения и сообщения об ошибках

Выбранный диапазон

Имя файла C:\Users\эксперт\Music\MX - The Last File.wav

Пиковый уровень 99.9 %
Качество диапазона 100.0 %
CRC копии 1A65B7B1
Копирование... OK

Ошибок не произошло


AccurateRip: сводка

Трек 1 нет в базе данных
Трек 2 нет в базе данных
Трек 3 нет в базе данных
Трек 4 нет в базе данных
Трек 5 нет в базе данных
Трек 6 нет в базе данных
Трек 7 нет в базе данных
Трек 8 нет в базе данных
Трек 9 нет в базе данных
Трек 10 нет в базе данных
Трек 11 нет в базе данных
Трек 12 нет в базе данных

Ни одного трека нет в базе AccurateRip

Конец отчёта


The Last File


Top
 Profile  
 
 
PostPosted: 06 Sep 2013 
ТрэшЭрос
User avatar
Joined: 18 Jul 2011
Posts: 2300
Lоcаtion: Гулькевичи
Age: 43
Name: Александр
thorbeorn, :thanx:
Интересно, почему на МА год указан 2000?

_________________
Thrash no trash!!!


Top
 Profile E-mail  
 
 
PostPosted: 06 Sep 2013 
Генеральный thrasher
User avatar
Joined: 03 Oct 2008
Posts: 3510
Lоcаtion: Ханты-Мансийский АО
Age: 43
Name: Сергей
Саш,на сайте группы он вообще указан как 1998.Хотя записывался зимой 98-99 годов.Просто немцы Hellion Records выпустили его в 2000.


Top
 Profile  
 
 
PostPosted: 06 Sep 2013 
ТрэшЭрос
User avatar
Joined: 18 Jul 2011
Posts: 2300
Lоcаtion: Гулькевичи
Age: 43
Name: Александр
Серёга, спасибо за разъяснение :thanx:
Неужели низзя прийти к единому знаменателю? Сколько таких вот вопросов часто возникает... :true:

_________________
Thrash no trash!!!


Top
 Profile E-mail  
 
 
PostPosted: 17 Feb 2015 
\m/ 80 см сала \m/
User avatar
Joined: 12 Mar 2012
Posts: 2589
Age: 25
Name: Nick
Есть возможность перелить? Спасибо :thanx:

_________________
1990 AUROPHON BRAINSTORM (Germany) - lossless
1994 MAUSOLEUM CLASSIX (Belgium-Germany) - lossless
1998 VA - GRIM HARVEST - Complete Metal Massacre Volumes I-XII


Top
 Profile  
 
 
PostPosted: 17 Feb 2015 
Генеральный thrasher
User avatar
Joined: 03 Oct 2008
Posts: 3510
Lоcаtion: Ханты-Мансийский АО
Age: 43
Name: Сергей
Конечно есть.Завтра перелью...


Top
 Profile  
 
 
PostPosted: 17 Feb 2015 
\m/ 80 см сала \m/
User avatar
Joined: 12 Mar 2012
Posts: 2589
Age: 25
Name: Nick
Все, не стоит, утянул с рутра. Сейчас отзеркалю.

_________________
1990 AUROPHON BRAINSTORM (Germany) - lossless
1994 MAUSOLEUM CLASSIX (Belgium-Germany) - lossless
1998 VA - GRIM HARVEST - Complete Metal Massacre Volumes I-XII


Top
 Profile  
 
 
PostPosted: 17 Feb 2015 
Генеральный thrasher
User avatar
Joined: 03 Oct 2008
Posts: 3510
Lоcаtion: Ханты-Мансийский АО
Age: 43
Name: Сергей
Я же писал,что все свои раздачи сидирую.Утянул - молодец!


Top
 Profile  
 
 
PostPosted: 17 Feb 2015 
\m/ 80 см сала \m/
User avatar
Joined: 12 Mar 2012
Posts: 2589
Age: 25
Name: Nick
Последнее время у меня шалит utorrent, иногда даже заполненные сидами раздачи на нуле по несколько суток :scratch:
Mirror: Narod

_________________
1990 AUROPHON BRAINSTORM (Germany) - lossless
1994 MAUSOLEUM CLASSIX (Belgium-Germany) - lossless
1998 VA - GRIM HARVEST - Complete Metal Massacre Volumes I-XII


Top
 Profile  
 
Display posts from previous:  Sort by  
Post new topic Reply to topic  [ 9 posts ] 

All times are UTC + 3 hours


Who is online

Users browsing this forum: No registered users and 2 guests


You cannot post new topics in this forum
You cannot reply to topics in this forum
You cannot edit your posts in this forum
You cannot delete your posts in this forum
You cannot post attachments in this forum

Search for:
Яндекс.Метрика
Powered by phpBB © 2000, 2002, 2005, 2007 phpBB Group