\m/ 80's metal \m/

Информационно-аналитический форум "80 см пыли" (In Search We Trust) "У нас никто никуда не спешит"
Me For You - http://me-4u.com
It is currently 16 Nov 2018

All times are UTC + 3 hours

Spoiler
Chat - temporary registration for foreign users (please leave your application here)







Post new topic Reply to topic  [ 10 posts ] 
Author Message
 
PostPosted: 24 Aug 2013 
А может смените мне статус?..
User avatar
Joined: 22 Nov 2008
Posts: 964
Lоcаtion: Schelcovo,Russia
Age: 47
Name: Сергей
Image

Madgator - Madgator (2010)

1. The Brave Without a Mask
2. Redlines
3. Back To the Highway
4. Hypnotize Her
5. Same Old Magic
6. Kill Some Angels
7. Fome e Seca
8. Eternal Fire
9. Yellowstone - ... Dedicate To Y. M.
10. Keep Me Comin?
11. Shelley?s Blue
12. Mr. Frankestein
13. Take Me To the Night
14. Panic At the Swamp
15. Madgator

Andres Recasens - Vocals
Andre Carvalho - Bass
Johnny Moreira - Drums
Hard Alexandre - Guitar

Совершенно потрясающая музыка,невероятная смесь прога,павера и коммерческого харда конца 80-х начала 90-х.
Но самое первое впечатление о группе создаёт тщательно прорисованная обложка диска,дело рук некого Emrah Elmasli


Cue
REM GENRE Metal
REM DATE 2010
REM DISCID DA0E230F
REM COMMENT "ExactAudioCopy v0.95b4"
PERFORMER "Madgator"
TITLE "Madgator"
FILE "Madgator - Madgator.wav" WAVE
TRACK 01 AUDIO
TITLE "The Brave Without a Mask"
PERFORMER "Madgator"
FLAGS DCP
INDEX 01 00:00:00
TRACK 02 AUDIO
TITLE "Redlines"
PERFORMER "Madgator"
FLAGS DCP
INDEX 01 06:14:09
TRACK 03 AUDIO
TITLE "Back To the Highway"
PERFORMER "Madgator"
FLAGS DCP
INDEX 00 12:17:33
INDEX 01 12:17:35
TRACK 04 AUDIO
TITLE "Hypnotize Her"
PERFORMER "Madgator"
FLAGS DCP
INDEX 00 16:17:30
INDEX 01 17:33:48
TRACK 05 AUDIO
TITLE "Same Old Magic"
PERFORMER "Madgator"
FLAGS DCP
INDEX 00 23:46:32
INDEX 01 23:46:38
TRACK 06 AUDIO
TITLE "Kill Some Angels"
PERFORMER "Madgator"
FLAGS DCP
INDEX 00 28:57:36
INDEX 01 28:57:38
TRACK 07 AUDIO
TITLE "Fome e Seca"
PERFORMER "Madgator"
FLAGS DCP
INDEX 00 33:43:28
INDEX 01 33:43:32
TRACK 08 AUDIO
TITLE "Eternal Fire"
PERFORMER "Madgator"
FLAGS DCP
INDEX 01 34:33:31
TRACK 09 AUDIO
TITLE "Yellowstone - ... Dedicate To Y. M."
PERFORMER "Madgator"
FLAGS DCP
INDEX 01 41:31:34
TRACK 10 AUDIO
TITLE "Keep Me Comin?"
PERFORMER "Madgator"
FLAGS DCP
INDEX 00 42:18:39
INDEX 01 42:18:40
TRACK 11 AUDIO
TITLE "Shelley?s Blue"
PERFORMER "Madgator"
FLAGS DCP
INDEX 00 47:00:06
INDEX 01 47:00:19
TRACK 12 AUDIO
TITLE "Mr. Frankestein"
PERFORMER "Madgator"
FLAGS DCP
INDEX 00 47:22:19
INDEX 01 47:22:26
TRACK 13 AUDIO
TITLE "Take Me To the Night"
PERFORMER "Madgator"
FLAGS DCP
INDEX 00 52:32:15
INDEX 01 52:32:19
TRACK 14 AUDIO
TITLE "Panic At the Swamp"
PERFORMER "Madgator"
FLAGS DCP
INDEX 01 55:56:29
TRACK 15 AUDIO
TITLE "Madgator"
PERFORMER "Madgator"
FLAGS DCP
INDEX 00 56:13:28
INDEX 01 56:14:19


Log
Отчёт EAC об извлечении, выполненном 18. августа 2013, 20:59 для диска:
Madgator / Madgator

Дисковод: HL-DT-STDVDRAM GT32N Adapter: 0 ID: 1
Режим чтения: Скоростной
Коррекция смещения при чтении: 0
Способность читать области Lead-in и Lead-out : Нет

Выходной формат: Внутренние WAV-операции
44.100 Гц; 16 бит; стерео

Другие параметры:
Заполнение пропущенных сэмплов тишиной : Да
Удаление блоков с тишиной в начале и конце : Нет
Установленный внешний ASPI-интерфейс


Характеристики диапазона извлечения и сообщения об ошибках
Выбранный диапазон
Имя файла C:\Users\Сергей\Music\Madgator - Madgator.wav

Пиковый уровень 99.9 %
CRC 99CFA8EE
Копирование... OK

Ошибок не произошло

Конец отчёта


:losik:

:esel:

madgator.com.br/


Top
 Profile  
 
 
PostPosted: 24 Aug 2013 
спирт 100%
User avatar
Joined: 22 Sep 2008
Posts: 4312
Age: 47
Name: Саня
Спасибо! :thanx:


Top
 Profile  
 
 
PostPosted: 24 Aug 2013 
Я набрал 1000 сообщений!
Joined: 24 Oct 2009
Posts: 2094
Lоcаtion: Оренбург
Age: 55
Name: Юра
:true:

_________________
:dash: I am happy!


Top
 Profile E-mail  
 
 
PostPosted: 24 Aug 2013 
Хиппей (support team)
User avatar
Joined: 30 Jul 2007
Posts: 108029
Lоcаtion: Киев (Kyiv, UA)
Age: 45
Name: Andrey
:thanx:

mirror: F-Bit l eDisk l Narod

Ну, почти Мандатор :crazy:

_________________


Top
 Profile E-mail  
 
 
PostPosted: 25 Aug 2013 
Хиппей (support team)
User avatar
Joined: 30 Jul 2007
Posts: 108029
Lоcаtion: Киев (Kyiv, UA)
Age: 45
Name: Andrey
Ой, класс. Прикольная группа :true:
Фанкъ-метол нарезают пацаны :garmo: :balet: :bodun:

Ну и обложка шедевральна, ага :oldman:

_________________


Top
 Profile E-mail  
 
 
PostPosted: 25 Aug 2013 
Хиппей (support team)
User avatar
Joined: 30 Jul 2007
Posts: 108029
Lоcаtion: Киев (Kyiv, UA)
Age: 45
Name: Andrey
Странно, что группы нет на М-А, но тем не менее, альбом уматовый =) :true:
Как уже выше сказал Серёга - культурная помесь олдового харндынхэви с современным звучанием, доходящим иногда чуть ли не до пауэр-трэша. И всё это основано на великолепных пассажах гитариста и фанковскими фишками в вокале, в дружных припевах и сдобрено уместными ритмичными сбивками :dance:
Ну и почти в каждом трэке можно опознать старый хэви 80-х. Группа по своей сути, как я понял, является стёбно-пародийной.

9/10

Хитов на альбоме много. Если слушать подольше, то все =)

зы. Официальный сайт группы давно не обновляется, поэтому следим за свежей инфой на их страничке с Мордобуке https://www.facebook.com/madgator

phpBB [youtube]


Image

_________________


Top
 Profile E-mail  
 
 
PostPosted: 25 Aug 2013 
Хиппей (support team)
User avatar
Joined: 30 Jul 2007
Posts: 108029
Lоcаtion: Киев (Kyiv, UA)
Age: 45
Name: Andrey
Ну а вот здесь https://www.facebook.com/theartofemrahelmasli можно посмотреть еще работы того художника :dance:
Или здесь http://emrahelmasli.blogspot.com

_________________


Top
 Profile E-mail  
 
 
PostPosted: 25 Aug 2013 
А может смените мне статус?..
User avatar
Joined: 22 Nov 2008
Posts: 964
Lоcаtion: Schelcovo,Russia
Age: 47
Name: Сергей
Ну а вот здесь https://www.facebook.com/theartofemrahelmasli можно посмотреть еще работы того художника :dance:
Или здесь http://emrahelmasli.blogspot.com

Кликните на имя художника выделенное красным цветом :pavlik:


Top
 Profile  
 
 
PostPosted: 25 Aug 2013 
Хиппей (support team)
User avatar
Joined: 30 Jul 2007
Posts: 108029
Lоcаtion: Киев (Kyiv, UA)
Age: 45
Name: Andrey
Гы, а я тупанул :pardon:

_________________


Top
 Profile E-mail  
 
 
PostPosted: 26 Aug 2013 
Alive Again
User avatar
Joined: 17 Dec 2008
Posts: 4740
Lоcаtion: Курск Воронеж Оскол
Age: 44
Name: Дмитрий
:thanx:


Top
 Profile E-mail  
 
Display posts from previous:  Sort by  
Post new topic Reply to topic  [ 10 posts ] 

All times are UTC + 3 hours


Who is online

Users browsing this forum: No registered users and 2 guests


You cannot post new topics in this forum
You cannot reply to topics in this forum
You cannot edit your posts in this forum
You cannot delete your posts in this forum
You cannot post attachments in this forum

Search for:
Яндекс.Метрика
Powered by phpBB © 2000, 2002, 2005, 2007 phpBB Group