\m/ 80's metal \m/

Информационно-аналитический форум "80 см пыли" (In Search We Trust) "У нас никто никуда не спешит"
Me For You - http://me-4u.com
It is currently 23 Sep 2018

All times are UTC + 3 hours

Spoiler
Chat - temporary registration for foreign users (please leave your application here)







Post new topic Reply to topic  [ 7 posts ] 
Author Message
 
PostPosted: 04 Aug 2013 
Хиппей (support team)
User avatar
Joined: 30 Jul 2007
Posts: 106469
Lоcаtion: Киев (Kyiv, UA)
Age: 45
Name: Andrey
Morgana Lefay - 1993 - Knowing Just As I [flac]

Image

Genre: Power Metal
Location: Sweden
Format: flac + cue + log + no scans
Size: 319 Mb
Source:
http://rutracker.org/forum/viewtopic.php?t=1365000 :thanx:

Line-up:
Charles Rytkönen - vocals
Tony Eriksson - uitars
Tommi Karppanen - guitars
Joakim Lundberg - bass
Jonas Söderlind - drums

    1. Enter the Oblivion - 05:22
    2. Red Moon - 06:17
    3. Salute the Sage - 03:36
    4. Rumours of Rain - 07:26
    5. Excalibur - 05:03
    6. Modern Devil - 03:23
    7. Wonderland - 05:10
    8. Razamanaz (Nazareth cover) - 02:45
    9. Battle of Evermore - 04:56
    10. Knowing Just as I - 01:35

    TPT: 45:33

F-Bit l Narod

По ходу, лучший альбом группы :dance: Но демка, предшествующая ему, понравилась больше :pardon:

8/10

log
EAC extraction logfile from 21. December 2008, 13:01 for CD
Morgana Lefay / Knowing Just as I

Used drive : SONY DVD RW DW-D26A Adapter: 1 ID: 0
Read mode : Secure with NO C2, accurate stream, disable cache
Read offset correction : 12
Overread into Lead-In and Lead-Out : No

Used output format : Internal WAV Routines
44.100 Hz; 16 Bit; Stereo

Other options :
Fill up missing offset samples with silence : Yes
Delete leading and trailing silent blocks : No
Native Win32 interface for Win NT & 2000


Range status and errors
Selected range
Filename E:\VIC\MUZON\ОБРАЗЫ\Morgana Lefay (1993)\morgana-lefay.wav

Peak level 98.8 %
Range quality 100.0 %
CRC C6636804
Copy OK

No errors occured

End of status report

cue
PERFORMER "Morgana Lefay"
TITLE "Knowing Just as I"
FILE "morgana-lefay.flac" WAVE
TRACK 01 AUDIO
TITLE "Enter the Oblivion"
PERFORMER "Morgana Lefay"
INDEX 01 00:00:00
TRACK 02 AUDIO
TITLE "Red Moon"
PERFORMER "Morgana Lefay"
INDEX 00 05:22:02
INDEX 01 05:22:47
TRACK 03 AUDIO
TITLE "Salute the Sage"
PERFORMER "Morgana Lefay"
INDEX 01 11:39:20
TRACK 04 AUDIO
TITLE "Rumors of Rain"
PERFORMER "Morgana Lefay"
INDEX 00 15:12:67
INDEX 01 15:15:65
TRACK 05 AUDIO
TITLE "Excalibur"
PERFORMER "Morgana Lefay"
INDEX 00 22:39:50
INDEX 01 22:41:25
TRACK 06 AUDIO
TITLE "Modern Devil"
PERFORMER "Morgana Lefay"
INDEX 00 27:44:17
INDEX 01 27:44:65
TRACK 07 AUDIO
TITLE "Wonderlan"
PERFORMER "Morgana Lefay"
INDEX 00 31:03:60
INDEX 01 31:07:70
TRACK 08 AUDIO
TITLE "Razamanaz"
PERFORMER "Morgana Lefay"
INDEX 00 36:16:15
INDEX 01 36:17:67
TRACK 09 AUDIO
TITLE "Battle of Evermore"
PERFORMER "Morgana Lefay"
INDEX 00 39:00:55
INDEX 01 39:02:10
TRACK 10 AUDIO
TITLE "Knowing Just as I"
PERFORMER "Morgana Lefay"
INDEX 00 43:56:67
INDEX 01 43:58:27

_________________


Top
 Profile E-mail  
 
 
PostPosted: 04 Aug 2013 
\m/ 80 см сала \m/
User avatar
Joined: 12 Mar 2012
Posts: 2588
Age: 25
Name: Nick
На демке звук... более живой? Демка тоже понравилась больше :scratch:
Спасибо за перелив :thanx:

_________________
1990 AUROPHON BRAINSTORM (Germany) - lossless
1994 MAUSOLEUM CLASSIX (Belgium-Germany) - lossless
1998 VA - GRIM HARVEST - Complete Metal Massacre Volumes I-XII


Top
 Profile  
 
 
PostPosted: 04 Aug 2013 
Хиппей (support team)
User avatar
Joined: 30 Jul 2007
Posts: 106469
Lоcаtion: Киев (Kyiv, UA)
Age: 45
Name: Andrey
Everhard wrote:
На демке звук... более живой?

Сам не понял, но явно перестановка трэков повлияла :vic:

_________________


Top
 Profile E-mail  
 
 
PostPosted: 04 Aug 2013 
\m/ 80 см сала \m/
User avatar
Joined: 12 Mar 2012
Posts: 2588
Age: 25
Name: Nick
Демка громче, это раз - про "лоуднесс вор" все слышали, тут тот же принцип играет маленькую роль. Теперь основное - гитары на альбоме опущены, эээ, щас как какую-то херню сморозю под пивом на пару тонов (?) и немного загнаны в фон (как мне показалось) - это два.

_________________
1990 AUROPHON BRAINSTORM (Germany) - lossless
1994 MAUSOLEUM CLASSIX (Belgium-Germany) - lossless
1998 VA - GRIM HARVEST - Complete Metal Massacre Volumes I-XII


Top
 Profile  
 
 
PostPosted: 05 Aug 2013 
Хиппей (support team)
User avatar
Joined: 30 Jul 2007
Posts: 106469
Lоcаtion: Киев (Kyiv, UA)
Age: 45
Name: Andrey
Три - демка чётко отдаёт... винилом :shok:

_________________


Top
 Profile E-mail  
 
 
PostPosted: 05 Aug 2013 
\m/ 80 см сала \m/
User avatar
Joined: 12 Mar 2012
Posts: 2588
Age: 25
Name: Nick
Кассетная магия? :scratch:

_________________
1990 AUROPHON BRAINSTORM (Germany) - lossless
1994 MAUSOLEUM CLASSIX (Belgium-Germany) - lossless
1998 VA - GRIM HARVEST - Complete Metal Massacre Volumes I-XII


Top
 Profile  
 
 
PostPosted: 05 Aug 2013 
Хиппей (support team)
User avatar
Joined: 30 Jul 2007
Posts: 106469
Lоcаtion: Киев (Kyiv, UA)
Age: 45
Name: Andrey
Не-е, скорее всего вертушечная шумиха :umnik:

_________________


Top
 Profile E-mail  
 
Display posts from previous:  Sort by  
Post new topic Reply to topic  [ 7 posts ] 

All times are UTC + 3 hours


Who is online

Users browsing this forum: No registered users and 2 guests


You cannot post new topics in this forum
You cannot reply to topics in this forum
You cannot edit your posts in this forum
You cannot delete your posts in this forum
You cannot post attachments in this forum

Search for:
Яндекс.Метрика
Powered by phpBB © 2000, 2002, 2005, 2007 phpBB Group