\m/ 80's metal \m/

Информационно-аналитический форум "80 см пыли" (In Search We Trust) "У нас никто никуда не спешит"
Me For You - http://me-4u.com
It is currently 20 Jan 2020

All times are UTC + 3 hours

Spoiler
Chat - temporary registration for foreign users (please leave your application here)







Post new topic Reply to topic  [ 1 post ] 
Author Message
 
PostPosted: 04 Aug 2013 
Хиппей (support team)
User avatar
Joined: 30 Jul 2007
Posts: 117040
Lоcаtion: Киев (Kyiv, UA)
Age: 46
Name: Andrey
Morgana Lefay - 1996 - Maleficum [ape]

Genre: Groove Power Metal
Location: Sweden
Format: ape + cue + log + covers
Size: 454 Mb
Source: Snatched from Internet


Image
Image

Line-up:
Charles Rytkönen - vocals
Daniel Persson - guitars
Tony Eriksson - guitars
Joakim Lundberg - bass
Jonas Söderlind - drums

    1. The Chamber of Confession (instrumental) - 02:15
    2. The Source of Pain - 05:26
    3. Victim of the Inquisition - 04:55
    4. Madness - 06:58
    5. A Final Farewell - 06:35
    6. Maleficium - 05:37
    7. It - 01:29
    8. Master of the Masquerade - 04:39
    9. Witches Garden - 04:31
    10. Dragons Lair - 04:16
    11. The Devil in Me - 06:34
    12. Where Fallen Angels Rule - 04:00
    13. Creatures of the Hierarchy - 05:08
    14. Nemesis (instrumental) - 02:20

    TPT: 64:43

F-Bit l Narod

К сожалению, альбом оказался какой-то невнятной хренью грувастой, как его туда-сюда не слушай :cry: И лишь парочка трэков радуют своей былой мелодичностью и красивым (чистым, не сэмплированным) вокалом.
Мдя... влияние моды сказалось и на этой классной группе :esel:

4/10

log
Exact Audio Copy V0.99 prebeta 4 from 23. January 2008

Отчёт EAC об извлечении, выполненном 15. февраля 2010, 17:39

Morgana Lefay / Maleficium

Дисковод: PIONEER DVD-RW DVR-112D Adapter: 1 ID: 1

Режим чтения : Достоверность
Использование точного потока : Да
Отключение кэша аудио : Да
Использование указателей C2 : Нет

Коррекция смещения при чтении : 48
Способность читать области Lead-in и Lead-out : Нет
Заполнение пропущенных сэмплов тишиной : Да
Удаление блоков с тишиной в начале и конце : Нет
При вычислениях CRC использовались нулевые сэмплы : Нет
Интерфейс : Встроенный Win32-интерфейс для Win NT/2000

Выходной формат : Monkey's Audio (без потерь)
Выбранный битрейт : High Lossless Compression
Качество : Высокий
Добавление ID3-тэга : Да
Утилита сжатия : D:\Music Programs\Monkey's Audio\Mac.exe


TOC извлечённого CD

Трек | Старт | Длительность | Начальный сектор | Конечный сектор
---------------------------------------------------------------------
1 | 0:00.00 | 2:15.15 | 0 | 10139
2 | 2:15.15 | 5:26.07 | 10140 | 34596
3 | 7:41.22 | 4:55.65 | 34597 | 56786
4 | 12:37.12 | 6:58.28 | 56787 | 88164
5 | 19:35.40 | 6:35.70 | 88165 | 117859
6 | 26:11.35 | 5:37.05 | 117860 | 143139
7 | 31:48.40 | 1:29.55 | 143140 | 149869
8 | 33:18.20 | 4:39.25 | 149870 | 170819
9 | 37:57.45 | 4:31.62 | 170820 | 191206
10 | 42:29.32 | 4:16.30 | 191207 | 210436
11 | 46:45.62 | 6:34.23 | 210437 | 240009
12 | 53:20.10 | 4:00.15 | 240010 | 258024
13 | 57:20.25 | 5:08.05 | 258025 | 281129
14 | 62:28.30 | 2:20.60 | 281130 | 291689


Характеристики диапазона извлечения и сообщения об ошибках

Выбранный диапазон

Имя файла G:\Rip\ML - M\Morgana Lefay - Maleficium.wav

Пиковый уровень 96.9 %
Качество диапазона 100.0 %
CRC копии 4DA1FF8A
Копирование... OK

Ошибок не произошло

Конец отчёта

cue
REM GENRE Metal
REM DATE 1996
REM DISCID B10F310E
REM COMMENT "ExactAudioCopy v0.99pb4"
PERFORMER "Morgana Lefay"
TITLE "Maleficium"
FILE "Morgana Lefay - Maleficium.ape" WAVE
TRACK 01 AUDIO
TITLE "The Chamber Of Confession"
PERFORMER "Morgana Lefay"
INDEX 01 00:00:00
TRACK 02 AUDIO
TITLE "The Source Of Pain"
PERFORMER "Morgana Lefay"
INDEX 01 02:15:15
TRACK 03 AUDIO
TITLE "Victim Of The Inquisition"
PERFORMER "Morgana Lefay"
INDEX 01 07:41:22
TRACK 04 AUDIO
TITLE "Madness"
PERFORMER "Morgana Lefay"
INDEX 01 12:37:12
TRACK 05 AUDIO
TITLE "A Final Farewell"
PERFORMER "Morgana Lefay"
INDEX 01 19:35:40
TRACK 06 AUDIO
TITLE "Maleficium"
PERFORMER "Morgana Lefay"
INDEX 01 26:11:35
TRACK 07 AUDIO
TITLE "It"
PERFORMER "Morgana Lefay"
INDEX 01 31:48:40
TRACK 08 AUDIO
TITLE "Master Of The Masquerade"
PERFORMER "Morgana Lefay"
INDEX 01 33:18:20
TRACK 09 AUDIO
TITLE "Witches Garden"
PERFORMER "Morgana Lefay"
INDEX 01 37:57:45
TRACK 10 AUDIO
TITLE "Dragons Lair"
PERFORMER "Morgana Lefay"
INDEX 01 42:29:32
TRACK 11 AUDIO
TITLE "The Devil In Me"
PERFORMER "Morgana Lefay"
INDEX 01 46:45:62
TRACK 12 AUDIO
TITLE "Where Fallen Angels Rule"
PERFORMER "Morgana Lefay"
INDEX 01 53:20:10
TRACK 13 AUDIO
TITLE "Creatures Of The Hierarchy"
PERFORMER "Morgana Lefay"
INDEX 01 57:20:25
TRACK 14 AUDIO
TITLE "Nemesis"
PERFORMER "Morgana Lefay"
INDEX 01 62:28:30

_________________


Top
 Profile E-mail  
 
Display posts from previous:  Sort by  
Post new topic Reply to topic  [ 1 post ] 

All times are UTC + 3 hours


Who is online

Users browsing this forum: No registered users and 2 guests


You cannot post new topics in this forum
You cannot reply to topics in this forum
You cannot edit your posts in this forum
You cannot delete your posts in this forum
You cannot post attachments in this forum

Search for:
Яндекс.Метрика
Powered by phpBB © 2000, 2002, 2005, 2007 phpBB Group