\m/ 80's metal \m/

Информационно-аналитический форум "80 см пыли" (In Search We Trust) "У нас никто никуда не спешит"
Me For You - http://me-4u.com
It is currently 21 Nov 2018

All times are UTC + 3 hours

Spoiler
Chat - temporary registration for foreign users (please leave your application here)







Post new topic Reply to topic  [ 8 posts ] 
Author Message
 
PostPosted: 04 Aug 2013 
\m/ 80 см сала \m/
User avatar
Joined: 12 Mar 2012
Posts: 2589
Age: 25
Name: Nick
Image

Mortal Sin - Mayhemic Destruction (1986) - 2007 Remastered (by Riot! Entertainment)

tracklist
01. The Curse 02:22
02. Women in Leather 04:49
03. Lebanon 07:22
04. Liar 04:19
05. Blood, Death, Hatred 03:54
06. Mortal Slaughter 03:13
07. Into the Fire 04:41
08. Mayhemic Destruction 05:12
Bonus tracks:
09. Terminal Reward
04:23
10. Women in Leather 04:25
11. Lebanon 07:05
12. Innocent Torture 04:11
13. I Am Immortal 04:55
14. Mayhemic Destruction 05:42
15. The Infantry Corps 05:45

metal-archives wrote:
20th Anniversary Official Re-issue (and first official CD issue) in November 2007 on Riot! Entertainment, featuring live bonus tracks recorded in Düsseldorf 1990.

Рип этого альбома был на moole.ru
Альбом на metal-archives | discogs

Ахтунг! Было также на ММТ.

_________________
1990 AUROPHON BRAINSTORM (Germany) - lossless
1994 MAUSOLEUM CLASSIX (Belgium-Germany) - lossless
1998 VA - GRIM HARVEST - Complete Metal Massacre Volumes I-XII


Top
 Profile  
 
 
PostPosted: 22 Aug 2013 
\m/ 80 см сала \m/
User avatar
Joined: 12 Mar 2012
Posts: 2589
Age: 25
Name: Nick
Нашлось на просторах сети :dance:
Download: yadi.sk (image+.log+some scans)

.log
Code:
EAC extraction logfile from 11. January 2008, 19:44 for CD
Mayhemic Destruction / Mortal Sin

Used drive  : BENQ    DVD DD DW1640   Adapter: 0  ID: 1
Read mode   : Secure with NO C2, accurate stream, disable cache
Read offset correction : 618
Overread into Lead-In and Lead-Out : No

Used output format : C:\- Temp\Metalmadness.Pack.v3.0.-.Tutorial.APE-FLAC-WV\Exact Audio Copy 0.9b4 + APE WV & FLAC Encoders\MAC.EXE   (Monkey's Audio Lossless Encoder)
                     High Lossless Compression

Other options      :
    Fill up missing offset samples with silence : Yes
    Delete leading and trailing silent blocks : No
    Native Win32 interface for Win NT & 2000


Range status and errors
Selected range
   Filename C:\- Temp\MortalSinMayhemic.wav

   Peak level 100.0 %
   Range quality 100.0 %
   CRC 9CDA28D3
   Copy OK

No errors occured

End of status report

.cue
Code:
PERFORMER "Mortal Sin"
TITLE "Mayhemic Destruction"
FILE "MortalSinMayhemic.ape" WAVE
  TRACK 01 AUDIO
    TITLE "The Curse"
    PERFORMER "Mayhemic Destruction"
    FLAGS DCP
    INDEX 01 00:00:00
  TRACK 02 AUDIO
    TITLE "Women In Leather"
    PERFORMER "Mayhemic Destruction"
    FLAGS DCP
    INDEX 00 02:20:05
    INDEX 01 02:20:59
  TRACK 03 AUDIO
    TITLE "Lebanon"
    PERFORMER "Mayhemic Destruction"
    FLAGS DCP
    INDEX 00 07:06:17
    INDEX 01 07:06:73
  TRACK 04 AUDIO
    TITLE "Liar"
    PERFORMER "Mayhemic Destruction"
    FLAGS DCP
    INDEX 00 14:22:12
    INDEX 01 14:23:03
  TRACK 05 AUDIO
    TITLE "Blood , Death , Hatred"
    PERFORMER "Mayhemic Destruction"
    FLAGS DCP
    INDEX 00 18:37:45
    INDEX 01 18:39:71
  TRACK 06 AUDIO
    TITLE "Mortal Slaughter"
    PERFORMER "Mayhemic Destruction"
    FLAGS DCP
    INDEX 00 22:29:34
    INDEX 01 22:31:56
  TRACK 07 AUDIO
    TITLE "Into he Fire"
    PERFORMER "Mayhemic Destruction"
    FLAGS DCP
    INDEX 00 25:41:49
    INDEX 01 25:43:32
  TRACK 08 AUDIO
    TITLE "Mayhemic Destruction"
    PERFORMER "Mayhemic Destruction"
    FLAGS DCP
    INDEX 00 30:20:50
    INDEX 01 30:21:50
  TRACK 09 AUDIO
    TITLE "Terminal Reward"
    PERFORMER "Mayhemic Destruction"
    FLAGS DCP
    INDEX 00 35:28:57
    INDEX 01 35:32:17
  TRACK 10 AUDIO
    TITLE "Women In Leather"
    PERFORMER "Mayhemic Destruction"
    FLAGS DCP
    INDEX 00 39:54:61
    INDEX 01 39:56:50
  TRACK 11 AUDIO
    TITLE "Lebanon"
    PERFORMER "Mayhemic Destruction"
    FLAGS DCP
    INDEX 00 44:48:54
    INDEX 01 44:50:42
  TRACK 12 AUDIO
    TITLE "Innocent Torture"
    PERFORMER "Mayhemic Destruction"
    FLAGS DCP
    INDEX 00 51:56:03
    INDEX 01 51:57:61
  TRACK 13 AUDIO
    TITLE "I Am Immortal"
    PERFORMER "Mayhemic Destruction"
    FLAGS DCP
    INDEX 00 56:09:31
    INDEX 01 56:11:30
  TRACK 14 AUDIO
    TITLE "Mayhemic Destruction"
    PERFORMER "Mayhemic Destruction"
    FLAGS DCP
    INDEX 00 61:06:59
    INDEX 01 61:08:58
  TRACK 15 AUDIO
    TITLE "The Infantry Corps"
    PERFORMER "Mayhemic Destruction"
    FLAGS DCP
    INDEX 00 66:51:12
    INDEX 01 66:53:10

scans
Image Image Image


Подправил куй:
.cue (edited) | +
Code:
REM DATE 1986
PERFORMER "Mortal Sin (AU)"
TITLE "Mayhemic Destruction [2007, Riot Entertainment, RIOT030CD]"
FILE "MortalSinMayhemic.ape" WAVE
  TRACK 01 AUDIO
    TITLE "The Curse"
    PERFORMER "Mortal Sin"
    FLAGS DCP
    INDEX 01 00:00:00
  TRACK 02 AUDIO
    TITLE "Women In Leather"
    PERFORMER "Mortal Sin"
    FLAGS DCP
    INDEX 00 02:20:05
    INDEX 01 02:20:59
  TRACK 03 AUDIO
    TITLE "Lebanon"
    PERFORMER "Mortal Sin"
    FLAGS DCP
    INDEX 00 07:06:17
    INDEX 01 07:06:73
  TRACK 04 AUDIO
    TITLE "Liar"
    PERFORMER "Mortal Sin"
    FLAGS DCP
    INDEX 00 14:22:12
    INDEX 01 14:23:03
  TRACK 05 AUDIO
    TITLE "Blood, Death, Hatred"
    PERFORMER "Mortal Sin"
    FLAGS DCP
    INDEX 00 18:37:45
    INDEX 01 18:39:71
  TRACK 06 AUDIO
    TITLE "Mortal Slaughter"
    PERFORMER "Mortal Sin"
    FLAGS DCP
    INDEX 00 22:29:34
    INDEX 01 22:31:56
  TRACK 07 AUDIO
    TITLE "Into he Fire"
    PERFORMER "Mortal Sin"
    FLAGS DCP
    INDEX 00 25:41:49
    INDEX 01 25:43:32
  TRACK 08 AUDIO
    TITLE "Mayhemic Destruction"
    PERFORMER "Mortal Sin"
    FLAGS DCP
    INDEX 00 30:20:50
    INDEX 01 30:21:50
  TRACK 09 AUDIO
    TITLE "Terminal Reward (live in Dusseldorf 1990)"
    PERFORMER "Mortal Sin"
    FLAGS DCP
    INDEX 00 35:28:57
    INDEX 01 35:32:17
  TRACK 10 AUDIO
    TITLE "Women In Leather (live in Dusseldorf 1990)"
    PERFORMER "Mortal Sin"
    FLAGS DCP
    INDEX 00 39:54:61
    INDEX 01 39:56:50
  TRACK 11 AUDIO
    TITLE "Lebanon (live in Dusseldorf 1990)"
    PERFORMER "Mortal Sin"
    FLAGS DCP
    INDEX 00 44:48:54
    INDEX 01 44:50:42
  TRACK 12 AUDIO
    TITLE "Innocent Torture (live in Dusseldorf 1990)"
    PERFORMER "Mortal Sin"
    FLAGS DCP
    INDEX 00 51:56:03
    INDEX 01 51:57:61
  TRACK 13 AUDIO
    TITLE "I Am Immortal (live in Dusseldorf 1990)"
    PERFORMER "Mortal Sin"
    FLAGS DCP
    INDEX 00 56:09:31
    INDEX 01 56:11:30
  TRACK 14 AUDIO
    TITLE "Mayhemic Destruction (live in Dusseldorf 1990)"
    PERFORMER "Mortal Sin"
    FLAGS DCP
    INDEX 00 61:06:59
    INDEX 01 61:08:58
  TRACK 15 AUDIO
    TITLE "The Infantry Corps (live in Dusseldorf 1990)"
    PERFORMER "Mortal Sin"
    FLAGS DCP
    INDEX 00 66:51:12
    INDEX 01 66:53:10


ыщо бы винил рип этого альбома - вообще была бы тогда полная ляпота :zayaz:

_________________
1990 AUROPHON BRAINSTORM (Germany) - lossless
1994 MAUSOLEUM CLASSIX (Belgium-Germany) - lossless
1998 VA - GRIM HARVEST - Complete Metal Massacre Volumes I-XII


Last edited by Everhard on 31 Aug 2013, edited 4 times in total.

Top
 Profile  
 
 
PostPosted: 24 Aug 2013 
Хиппей (support team)
User avatar
Joined: 30 Jul 2007
Posts: 108255
Lоcаtion: Киев (Kyiv, UA)
Age: 45
Name: Andrey
Уря :thanx:

_________________


Top
 Profile E-mail  
 
 
PostPosted: 27 Sep 2013 
\m/ 80 см сала \m/
User avatar
Joined: 12 Mar 2012
Posts: 2589
Age: 25
Name: Nick
New link: Narod
Vinyl rip: viewtopic.php?f=162&t=11778

_________________
1990 AUROPHON BRAINSTORM (Germany) - lossless
1994 MAUSOLEUM CLASSIX (Belgium-Germany) - lossless
1998 VA - GRIM HARVEST - Complete Metal Massacre Volumes I-XII


Top
 Profile  
 
 
PostPosted: 21 Dec 2013 
Дежурный по КУПу
User avatar
Joined: 17 Aug 2007
Posts: 5869
Age: 50
Name: Ге
Ой, как всё здесь чудненько нашлось :true:
Спасибо! :thanx:

_________________
http://jp-mania.ru/
http://jp-tourdates.ucoz.ru/


Top
 Profile  
 
 
PostPosted: 21 Dec 2013 
Хиппей (support team)
User avatar
Joined: 30 Jul 2007
Posts: 108255
Lоcаtion: Киев (Kyiv, UA)
Age: 45
Name: Andrey
Я еще сонный...
Так это, топик в запросах, потому как не нашли еще DVD? :oops:

_________________


Top
 Profile E-mail  
 
 
PostPosted: 09 Aug 2014 
\m/ 80 см сала \m/
User avatar
Joined: 12 Mar 2012
Posts: 2589
Age: 25
Name: Nick
Закрывай, двд к этому запросу не имеет отношения :crazy:

_________________
1990 AUROPHON BRAINSTORM (Germany) - lossless
1994 MAUSOLEUM CLASSIX (Belgium-Germany) - lossless
1998 VA - GRIM HARVEST - Complete Metal Massacre Volumes I-XII


Top
 Profile  
 
 
PostPosted: 10 Aug 2014 
Хиппей (support team)
User avatar
Joined: 30 Jul 2007
Posts: 108255
Lоcаtion: Киев (Kyiv, UA)
Age: 45
Name: Andrey
Ага, точно, ДВД нет никакого. Переношу топик в Бухту :dance:

_________________


Top
 Profile E-mail  
 
Display posts from previous:  Sort by  
Post new topic Reply to topic  [ 8 posts ] 

All times are UTC + 3 hours


Who is online

Users browsing this forum: No registered users and 5 guests


You cannot post new topics in this forum
You cannot reply to topics in this forum
You cannot edit your posts in this forum
You cannot delete your posts in this forum
You cannot post attachments in this forum

Search for:
Яндекс.Метрика
Powered by phpBB © 2000, 2002, 2005, 2007 phpBB Group