\m/ 80's metal \m/

Информационно-аналитический форум "80 см пыли" (In Search We Trust) "У нас никто никуда не спешит"
Me For You - http://me-4u.com
It is currently 24 Sep 2018

All times are UTC + 3 hours

Spoiler
Chat - temporary registration for foreign users (please leave your application here)







Post new topic Reply to topic  [ 25 posts ]  Go to page 1, 2  Next
Author Message
 
PostPosted: 24 May 2013 
Трешер
User avatar
Joined: 25 Feb 2011
Posts: 1045
Lоcаtion: Харьков
Age: 42
Name: Aleksandr
Image
1. Above & Beyond (intro) 01:15 instrumental
2. Reality 04:31
3. Keep on Pushing 04:02
4. Deception of Evil 05:08
5. I Believe 03:34
6. Don't Get Me Wrong 04:38
7. Tears in my Eyes 04:38
8. Kissed by an Angel 04:49
9. Scream & Shout (bonus) 04:11 Japanese bonus track
10. Bad Blood 04:20
11. Endlessly 04:07
12. Eye of the Beholder 04:37 instrumental
13. Hey 03:37


Top
 Profile E-mail  
 
 
PostPosted: 25 May 2013 
консэрваторъ
Joined: 11 Aug 2007
Posts: 15924
Lоcаtion: Псков
Age: 44
Name: Сергей
glloomerxe wrote:
9. Scream & Shout (bonus) 04:11 Japanese bonus track

Ищется ради него?.. Если найдём из запросов в бонусах уберём?..

_________________
THRASH 'EM ALL


Top
 Profile E-mail  
 
 
PostPosted: 25 May 2013 
спирт 100%
User avatar
Joined: 22 Sep 2008
Posts: 4282
Age: 47
Name: Саня
http://www.mediaboom.org/368378-midnigh ... -1998.html
Ха ,а ссылки не работают :umnik:


Top
 Profile  
 
 
PostPosted: 25 May 2013 
Трешер
User avatar
Joined: 25 Feb 2011
Posts: 1045
Lоcаtion: Харьков
Age: 42
Name: Aleksandr
Да нужен Japanese bonus track.


Top
 Profile E-mail  
 
 
PostPosted: 25 May 2013 
Генеральный thrasher
User avatar
Joined: 03 Oct 2008
Posts: 3450
Lоcаtion: Ханты-Мансийский АО
Age: 43
Name: Сергей
Так у Оксаны на форуме есть лось с этим бонусом...


Top
 Profile  
 
 
PostPosted: 25 May 2013 
консэрваторъ
Joined: 11 Aug 2007
Posts: 15924
Lоcаtion: Псков
Age: 44
Name: Сергей
thorbeorn wrote:

Ага, и всё работает... :true: Я запрос из бонусов убираю тогда...

_________________
THRASH 'EM ALL


Top
 Profile E-mail  
 
 
PostPosted: 30 May 2013 
Трешер
User avatar
Joined: 25 Feb 2011
Posts: 1045
Lоcаtion: Харьков
Age: 42
Name: Aleksandr
От спасибо :thanx:


Top
 Profile E-mail  
 
 
PostPosted: 30 May 2013 
Хиппей (support team)
User avatar
Joined: 30 Jul 2007
Posts: 106509
Lоcаtion: Киев (Kyiv, UA)
Age: 45
Name: Andrey
:thanx:

_________________


Top
 Profile E-mail  
 
 
PostPosted: 30 May 2013 
Хиппей (support team)
User avatar
Joined: 30 Jul 2007
Posts: 106509
Lоcаtion: Киев (Kyiv, UA)
Age: 45
Name: Andrey
Начал слушать...
Интро начинается с... голоса Фили Кирфкорофа на английском :shok:

_________________


Top
 Profile E-mail  
 
 
PostPosted: 30 May 2013 
Хиппей (support team)
User avatar
Joined: 30 Jul 2007
Posts: 106509
Lоcаtion: Киев (Kyiv, UA)
Age: 45
Name: Andrey
Норм-норм. Подростковый вокал радовает :meloman: И клавишные в тему. Годная музячка.
5-й трэк можно сразу в топик с балладами забирать :dance:

_________________


Top
 Profile E-mail  
 
 
PostPosted: 30 May 2013 
Хиппей (support team)
User avatar
Joined: 30 Jul 2007
Posts: 106509
Lоcаtion: Киев (Kyiv, UA)
Age: 45
Name: Andrey
glloomerxe wrote:
9. Scream & Shout (bonus) 04:11 Japanese bonus track

Этот трэк звучит согласно хронометражу. Но у меня почему-то осталось стойкое убеждении, что песне сделали неудачное харакири. Резко обрывается. Или это прикол такой (смотрю на название), ибо дальше вокалист продолжить петь следующую вещь, как будто живой и весь в сапогах. Или сэппуку провели не по правилам. То есть, безалаберно и безответственно :esel:

_________________


Top
 Profile E-mail  
 
 
PostPosted: 30 May 2013 
Хиппей (support team)
User avatar
Joined: 30 Jul 2007
Posts: 106509
Lоcаtion: Киев (Kyiv, UA)
Age: 45
Name: Andrey
Midnight Sun - 1998 - Above & Beyond [flac] (Japanese issue)

Image

Format: flac + cue + log + scans

mirror: F-Bit l Narod

log
Exact Audio Copy V0.99 prebeta 5 from 4. May 2009

EAC extraction logfile from 13. March 2012, 0:19

Midnignt Sun / Above & Beyond

Used drive : ATAPI iHAS624 B Adapter: 2 ID: 0

Read mode : Secure
Utilize accurate stream : Yes
Defeat audio cache : Yes
Make use of C2 pointers : No

Read offset correction : 6
Overread into Lead-In and Lead-Out : No
Fill up missing offset samples with silence : Yes
Delete leading and trailing silent blocks : No
Null samples used in CRC calculations : Yes
Used interface : Installed external ASPI interface

Used output format : User Defined Encoder
Selected bitrate : 40 kBit/s
Quality : High
Add ID3 tag : No
Command line compressor : C:\Program Files\Exact Audio Copy\Flac\flac.exe
Additional command line options : -6 -V %s


TOC of the extracted CD

Track | Start | Length | Start sector | End sector
---------------------------------------------------------
1 | 0:00.00 | 1:15.14 | 0 | 5638
2 | 1:15.14 | 4:31.19 | 5639 | 25982
3 | 5:46.33 | 4:02.38 | 25983 | 44170
4 | 9:48.71 | 5:08.10 | 44171 | 67280
5 | 14:57.06 | 3:34.45 | 67281 | 83375
6 | 18:31.51 | 4:38.39 | 83376 | 104264
7 | 23:10.15 | 4:38.24 | 104265 | 125138
8 | 27:48.39 | 4:49.08 | 125139 | 146821
9 | 32:37.47 | 4:11.13 | 146822 | 165659
10 | 36:48.60 | 4:20.50 | 165660 | 185209
11 | 41:09.35 | 4:07.20 | 185210 | 203754
12 | 45:16.55 | 4:37.38 | 203755 | 224567
13 | 49:54.18 | 3:37.63 | 224568 | 240905


Range status and errors

Selected range

Filename D:\Video\Midnignt Sun - Above & Beyond.wav

Peak level 97.7 %
Range quality 100.0 %
Copy CRC FF3A5147
Copy OK

No errors occurred


AccurateRip summary

Track 1 not present in database
Track 2 not present in database
Track 3 not present in database
Track 4 not present in database
Track 5 not present in database
Track 6 not present in database
Track 7 not present in database
Track 8 not present in database
Track 9 not present in database
Track 10 not present in database
Track 11 not present in database
Track 12 not present in database
Track 13 not present in database

None of the tracks are present in the AccurateRip database

End of status report

cue
REM GENRE "Heavy Metal"
REM DATE 1998
REM DISCID C10C8C0D
REM COMMENT "ExactAudioCopy v0.99pb5"
PERFORMER "Midnignt Sun"
TITLE "Above & Beyond"
FILE "Midnignt Sun - Above & Beyond.flac" WAVE
TRACK 01 AUDIO
TITLE "Above & Beyond (Intro)"
PERFORMER "Midnignt Sun"
FLAGS DCP
INDEX 01 00:00:00
TRACK 02 AUDIO
TITLE "Reality"
PERFORMER "Midnignt Sun"
FLAGS DCP
INDEX 01 01:15:14
TRACK 03 AUDIO
TITLE "Keep On Pushing"
PERFORMER "Midnignt Sun"
FLAGS DCP
INDEX 01 05:46:33
TRACK 04 AUDIO
TITLE "Deception Of Evil"
PERFORMER "Midnignt Sun"
FLAGS DCP
INDEX 01 09:48:71
TRACK 05 AUDIO
TITLE "I Believe"
PERFORMER "Midnignt Sun"
FLAGS DCP
INDEX 01 14:57:06
TRACK 06 AUDIO
TITLE "Don't Get Me Wrong"
PERFORMER "Midnignt Sun"
FLAGS DCP
INDEX 01 18:31:51
TRACK 07 AUDIO
TITLE "Tears In My Eyes"
PERFORMER "Midnignt Sun"
FLAGS DCP
INDEX 01 23:10:15
TRACK 08 AUDIO
TITLE "Kissed By An Angel"
PERFORMER "Midnignt Sun"
FLAGS DCP
INDEX 01 27:48:39
TRACK 09 AUDIO
TITLE "Scream & Shout (Bonus Track)"
PERFORMER "Midnignt Sun"
FLAGS DCP
INDEX 01 32:37:47
TRACK 10 AUDIO
TITLE "Bad Blood"
PERFORMER "Midnignt Sun"
FLAGS DCP
INDEX 01 36:48:60
TRACK 11 AUDIO
TITLE "Endlessly"
PERFORMER "Midnignt Sun"
FLAGS DCP
INDEX 01 41:09:35
TRACK 12 AUDIO
TITLE "Eye Of The Beholder"
PERFORMER "Midnignt Sun"
FLAGS DCP
INDEX 01 45:16:55
TRACK 13 AUDIO
TITLE "Hey"
PERFORMER "Midnignt Sun"
FLAGS DCP
INDEX 01 49:54:18

_________________


Top
 Profile E-mail  
 
 
PostPosted: 30 May 2013 
Power Metal Maniac
User avatar
Joined: 09 Aug 2008
Posts: 6304
Lоcаtion: Москва
Age: 40
Name: Егор
Из всех альбомов Midnight Sun только последний "Metal Machine" прекрасен, оригинальный Heavy/Power c заездами в нео-классику и индастриал (!) и с нарочито стебной трушной лирикой.

_________________
Long Live Metal!


Top
 Profile  
 
 
PostPosted: 30 May 2013 
Хиппей (support team)
User avatar
Joined: 30 Jul 2007
Posts: 106509
Lоcаtion: Киев (Kyiv, UA)
Age: 45
Name: Andrey
Тьху, вот так и думал, что они в павер скатяца :esel: :esel: :esel: С таким то насыщенным саундом.
Хотя если стёб, то нормально, отлично. Послушаю тоже :true:

_________________


Top
 Profile E-mail  
 
 
PostPosted: 30 May 2013 
Power Metal Maniac
User avatar
Joined: 09 Aug 2008
Posts: 6304
Lоcаtion: Москва
Age: 40
Name: Егор
Ну истинно Паверных там несколько песен. а саунд тебе не понравится - модерновый. Но в том и фишка, попытка совместить разное в одном флаконе и пости я тебя уважаюся над этим же.

_________________
Long Live Metal!


Top
 Profile  
 
 
PostPosted: 30 May 2013 
Power Metal Maniac
User avatar
Joined: 09 Aug 2008
Posts: 6304
Lоcаtion: Москва
Age: 40
Name: Егор
Вот, офигенная ИМХО открывашка Metal Gods, до сих пор одна их самых часто мной переслушиваемых вещей. Такого гибрида пафоса, трушности и модерновости мало кто достигал)
phpBB [youtube]

_________________
Long Live Metal!


Top
 Profile  
 
 
PostPosted: 30 May 2013 
Хиппей (support team)
User avatar
Joined: 30 Jul 2007
Posts: 106509
Lоcаtion: Киев (Kyiv, UA)
Age: 45
Name: Andrey
Данный альбом (1998 года) всё больше и больше нравится :true:

6/10

_________________


Top
 Profile E-mail  
 
 
PostPosted: 30 May 2013 
Хиппей (support team)
User avatar
Joined: 30 Jul 2007
Posts: 106509
Lоcаtion: Киев (Kyiv, UA)
Age: 45
Name: Andrey
EG Power wrote:
Вот, офигенная ИМХО открывашка Metal Gods

Ааааааааааа, порвала :crazy: :ura: :kz: :kz: :kz:
И шо, даже без гроула или харша вокальные партии на альбоме все?
Срочно качаю :thanx:

Анатолику Приватиру затем тихонько так нужно подсунуть этот альбом :al:
Надеюсь он его еще не слушал :fingal:

_________________


Top
 Profile E-mail  
 
 
PostPosted: 30 May 2013 
Power Metal Maniac
User avatar
Joined: 09 Aug 2008
Posts: 6304
Lоcаtion: Москва
Age: 40
Name: Егор
да, никакого гроула и Харша, вокалист косит под Хэлфорда.

_________________
Long Live Metal!


Top
 Profile  
 
 
PostPosted: 31 May 2013 
Хиппей (support team)
User avatar
Joined: 30 Jul 2007
Posts: 106509
Lоcаtion: Киев (Kyiv, UA)
Age: 45
Name: Andrey
Блин, он и на 98-м году альбоме местами под него высокие брал, едрить, мне аж неудобно было как-то слушать :oops:
EG Power wrote:
да, никакого гроула и Харша

А чо с большой буквы? Ты про Ханси, который Кёрш? :shok:

_________________


Top
 Profile E-mail  
 
Display posts from previous:  Sort by  
Post new topic Reply to topic  [ 25 posts ]  Go to page 1, 2  Next

All times are UTC + 3 hours


Who is online

Users browsing this forum: No registered users and 1 guest


You cannot post new topics in this forum
You cannot reply to topics in this forum
You cannot edit your posts in this forum
You cannot delete your posts in this forum
You cannot post attachments in this forum

Search for:
Яндекс.Метрика
Powered by phpBB © 2000, 2002, 2005, 2007 phpBB Group