\m/ 80's metal \m/

Информационно-аналитический форум "80 см пыли" (In Search We Trust) "У нас никто никуда не спешит"
Me For You - http://me-4u.com
It is currently 21 Nov 2018

All times are UTC + 3 hours

Spoiler
Chat - temporary registration for foreign users (please leave your application here)







Post new topic Reply to topic  [ 5 posts ] 
Author Message
 
PostPosted: 24 Feb 2013 
Работнечег
User avatar
Joined: 28 Aug 2007
Posts: 5555
Lоcаtion: г. Москва
Age: 29
Name: Дима
Image

Year: 1996
Label: Victor Entertainment
Country: Netherlands
Style: Heavy Metal
Format: Flac+Cue+Log+Covers
Size: 286 + 218 Mb

Line-Up:
Fonny Janssen - Drums
Joss Mennen - Vocals
Frenk Aendenroomer - Bass
P.P. - Guitars
Eric Van De Kerkhof - Guitars


Tracklist:
1. Foreword
2. Back to the Real World
3. War
4. Aftershock
5. The Connexion
6. Exit the Old
7. Circle of Life
8. Somewhere in Time
9. Child's Play
10. Fonny
11. Fool
12. Slaves of Lust
13. Injustice

LOG
Exact Audio Copy V0.99 prebeta 5 from 4. May 2009

EAC extraction logfile from 17. February 2013, 22:08

Mennen / Back To The Real World

Used drive : PIONEER DVD-RW DVR-116D Adapter: 0 ID: 0

Read mode : Secure
Utilize accurate stream : Yes
Defeat audio cache : Yes
Make use of C2 pointers : No

Read offset correction : 96
Overread into Lead-In and Lead-Out : No
Fill up missing offset samples with silence : Yes
Delete leading and trailing silent blocks : No
Null samples used in CRC calculations : Yes
Used interface : Native Win32 interface for Win NT & 2000

Used output format : User Defined Encoder
Selected bitrate : 32 kBit/s
Quality : High
Add ID3 tag : No
Command line compressor : C:\Program Files\Exact Audio Copy\Flac\flac.exe
Additional command line options : -6 -V %s


TOC of the extracted CD

Track | Start | Length | Start sector | End sector
---------------------------------------------------------
1 | 0:00.37 | 1:08.30 | 37 | 5166
2 | 1:08.67 | 6:26.32 | 5167 | 34148
3 | 7:35.24 | 5:24.70 | 34149 | 58518
4 | 13:00.19 | 5:24.48 | 58519 | 82866
5 | 18:24.67 | 4:23.07 | 82867 | 102598
6 | 22:47.74 | 5:09.28 | 102599 | 125801
7 | 27:57.27 | 3:34.15 | 125802 | 141866
8 | 31:31.42 | 3:35.72 | 141867 | 158063
9 | 35:07.39 | 7:06.03 | 158064 | 190016
10 | 42:13.42 | 1:00.20 | 190017 | 194536
11 | 43:13.62 | 3:54.60 | 194537 | 212146
12 | 47:08.47 | 4:44.00 | 212147 | 233446
13 | 51:52.47 | 4:21.47 | 233447 | 253068
14 | 56:14.19 | 5:48.10 | 253069 | 279178
15 | 62:02.29 | 5:20.70 | 279179 | 303248


Range status and errors

Selected range

Filename D:\Музыка\Lossless\Mennen - Back To The Real World (1996) (Japan)\Mennen - Back To The Real World.wav

Peak level 97.3 %
Range quality 100.0 %
Copy CRC 0176B7DC
Copy OK

No errors occurred


AccurateRip summary

Track 1 not present in database
Track 2 not present in database
Track 3 not present in database
Track 4 not present in database
Track 5 not present in database
Track 6 not present in database
Track 7 not present in database
Track 8 not present in database
Track 9 not present in database
Track 10 not present in database
Track 11 not present in database
Track 12 not present in database
Track 13 not present in database
Track 14 not present in database
Track 15 not present in database

None of the tracks are present in the AccurateRip database

End of status report

CUE
REM GENRE "Hard Rock"
REM DATE 1996
REM DISCID DA0FCB0F
REM COMMENT "ExactAudioCopy v0.99pb5"
PERFORMER "Mennen"
TITLE "Back To The Real World"
FILE "Mennen - Back To The Real World.flac" WAVE
TRACK 01 AUDIO
TITLE "Foreword"
PERFORMER "Mennen"
INDEX 00 00:00:00
INDEX 01 00:00:37
TRACK 02 AUDIO
TITLE "Back To The Real World"
PERFORMER "Mennen"
INDEX 01 01:08:67
TRACK 03 AUDIO
TITLE "War"
PERFORMER "Mennen"
INDEX 01 07:35:24
TRACK 04 AUDIO
TITLE "Aftershock"
PERFORMER "Mennen"
INDEX 01 13:00:19
TRACK 05 AUDIO
TITLE "The Connexion"
PERFORMER "Mennen"
INDEX 00 18:23:30
INDEX 01 18:24:67
TRACK 06 AUDIO
TITLE "Exit The Old"
PERFORMER "Mennen"
INDEX 00 22:47:38
INDEX 01 22:47:74
TRACK 07 AUDIO
TITLE "Circle Of Life"
PERFORMER "Mennen"
INDEX 00 27:55:28
INDEX 01 27:57:27
TRACK 08 AUDIO
TITLE "Somewhere In Time"
PERFORMER "Mennen"
INDEX 00 31:30:05
INDEX 01 31:31:42
TRACK 09 AUDIO
TITLE "Child's Play"
PERFORMER "Mennen"
INDEX 00 35:06:40
INDEX 01 35:07:39
TRACK 10 AUDIO
TITLE "Fonny"
PERFORMER "Mennen"
INDEX 01 42:13:42
TRACK 11 AUDIO
TITLE "Fool"
PERFORMER "Mennen"
INDEX 01 43:13:62
TRACK 12 AUDIO
TITLE "Slaves Of Lust"
PERFORMER "Mennen"
INDEX 00 47:08:10
INDEX 01 47:08:47
TRACK 13 AUDIO
TITLE "Injustice"
PERFORMER "Mennen"
INDEX 00 51:51:48
INDEX 01 51:52:47
TRACK 14 AUDIO
TITLE "River Of Tears"
PERFORMER "Mennen"
INDEX 00 56:11:58
INDEX 01 56:14:19
TRACK 15 AUDIO
TITLE "School"
PERFORMER "Mennen"
INDEX 00 61:58:73
INDEX 01 62:02:29


Part I
Part II

Ещё один рекомендуемый к прослушиванию альбом от голландцев!


Top
 Profile E-mail  
 
 
PostPosted: 25 Feb 2013 
Хиппей (support team)
User avatar
Joined: 30 Jul 2007
Posts: 108243
Lоcаtion: Киев (Kyiv, UA)
Age: 45
Name: Andrey
Дим, спасибо! :thanx:



Я твой пост в ту темку перенесу, а?

_________________


Top
 Profile E-mail  
 
 
PostPosted: 25 Feb 2013 
Работнечег
User avatar
Joined: 28 Aug 2007
Posts: 5555
Lоcаtion: г. Москва
Age: 29
Name: Дима
Я твой пост в ту темку перенесу, а?

переноси конечно) тогда и пост с первым альбомомом наверное тоже.. :fingal:


Top
 Profile E-mail  
 
 
PostPosted: 26 Feb 2013 
Хиппей (support team)
User avatar
Joined: 30 Jul 2007
Posts: 108243
Lоcаtion: Киев (Kyiv, UA)
Age: 45
Name: Andrey
Блин, по ходу, не буду. Просто запрос тот закрою и ссылки на лосей там тыкну :oops:

_________________


Top
 Profile E-mail  
 
 
PostPosted: 26 Feb 2013 
Хиппей (support team)
User avatar
Joined: 30 Jul 2007
Posts: 108243
Lоcаtion: Киев (Kyiv, UA)
Age: 45
Name: Andrey
Вроде и неплохой альбом в целом, но некоторые песни его портят :(
То дудки неожиданно вылезут :boo:, то хард-роковые рамки расползутся до каких-то несуразных полу-паверных масштабов.
А так - вполне даже приличненько и мелодично-бодро :dance:

6/10

mirror: MultiUp l Narod

_________________


Top
 Profile E-mail  
 
Display posts from previous:  Sort by  
Post new topic Reply to topic  [ 5 posts ] 

All times are UTC + 3 hours


Who is online

Users browsing this forum: No registered users and 2 guests


You cannot post new topics in this forum
You cannot reply to topics in this forum
You cannot edit your posts in this forum
You cannot delete your posts in this forum
You cannot post attachments in this forum

Search for:
Яндекс.Метрика
Powered by phpBB © 2000, 2002, 2005, 2007 phpBB Group