\m/ 80's metal \m/

Информационно-аналитический форум "80 см пыли" (In Search We Trust) "У нас никто никуда не спешит"
Me For You - http://me-4u.com
It is currently 22 Sep 2018

All times are UTC + 3 hours

Spoiler
Chat - temporary registration for foreign users (please leave your application here)







Post new topic Reply to topic  [ 17 posts ] 
Author Message
 
PostPosted: 19 Jan 2013 
Персональный статус
User avatar
Joined: 02 Jul 2009
Posts: 293
Name: Александр
Разыскиваются лоси

Mennen - Back to the Real World (1996)

Image

Category: Melodic Metal
Year: 1996
Label: Red Sea Records
Catalog Number: RED2028

Personnel
Joss Mennen vocals
P.P. guitars
Eric Van De Kerkhof guitars
Frenk Aendenroome bass
Fonny Jannsen drums

Tracks
1. Foreward
2. Back to the Real World
3. War Listen!
4. Aftershock
5. The Connexion
6. Exit the Old
7. Circle of Life
8. Somewhere in Time
9. Child's Play
10. Fonny
11. Fool
12. Slaves of Lust
13. Injustice
14. River of Tears

Ну уж если без бонусов , так и без них .

http://www.heavyharmonies.com/cgi-bin/g ... Real+World

==============================================================

Mennen - Freakazoid (Маху дал . Freakazoid 2004 хотелось бы , исправил)

Image

Category: Hard Rock/Melodic Metal
Year: 2004
Label: Snakebite Records
Catalog Number: SNB004

Personnel
Joss Mennen Lead Vocals
Eric Van De Kerkhof Guitars
Alex Jansen Bass
Fon Janssen Drums

Tracks
1. Down
2. Above The Waterline
3. It's Over
4. Rain
5. Secrets And Lies
6. Bob
7. Freakazoid
8. These Good Times
9. Believe
10. The World Stopped Turning
11. Wicked White

http://www.heavyharmonies.com/cgi-bin/g ... Freakazoid


Last edited by Deris on 19 Jan 2013, edited 1 time in total.

Top
 Profile E-mail  
 
 
PostPosted: 19 Jan 2013 
Персональный статус
User avatar
Joined: 29 Sep 2009
Posts: 271
Lоcаtion: Надым
Age: 40
Name: Виталий
Deris
:shok: А энти у тебя есть? Может выложишь?
1998 Age of Fools
2001 Circle of Live
2004 Freakazoid
2008 Planet Black


Top
 Profile E-mail  
 
 
PostPosted: 19 Jan 2013 
Персональный статус
User avatar
Joined: 02 Jul 2009
Posts: 293
Name: Александр
1998 Age of Fools и 2008 Planet Black вроде есть . Посмотрю . Если надо , то выложу .


Top
 Profile E-mail  
 
 
PostPosted: 19 Jan 2013 
Персональный статус
User avatar
Joined: 02 Jul 2009
Posts: 293
Name: Александр
Эх . Я ведь не то попросил 2004 Freakazoid надо то ............... :oops:


Top
 Profile E-mail  
 
 
PostPosted: 20 Jan 2013 
Персональный статус
User avatar
Joined: 29 Sep 2009
Posts: 271
Lоcаtion: Надым
Age: 40
Name: Виталий
1998 Age of Fools и 2008 Planet Black вроде есть . Посмотрю . Если надо , то выложу .

Было бы прекрасно! :thanx:


Top
 Profile E-mail  
 
 
PostPosted: 20 Jan 2013 
Персональный статус
User avatar
Joined: 02 Jul 2009
Posts: 293
Name: Александр
Mennen [1998]Age of Fools нашёл . Но рип не мой .


Top
 Profile E-mail  
 
 
PostPosted: 20 Jan 2013 
Персональный статус
User avatar
Joined: 29 Sep 2009
Posts: 271
Lоcаtion: Надым
Age: 40
Name: Виталий
давай, давай... :smile:


Top
 Profile E-mail  
 
 
PostPosted: 20 Jan 2013 
Персональный статус
User avatar
Joined: 02 Jul 2009
Posts: 293
Name: Александр
Держи Виталь : Mennen - Age of Fools ( 1998 )

http://rusfolder.com/34598842


Top
 Profile E-mail  
 
 
PostPosted: 20 Jan 2013 
Персональный статус
User avatar
Joined: 29 Sep 2009
Posts: 271
Lоcаtion: Надым
Age: 40
Name: Виталий
Deris
Спасибо!!! :true:


Top
 Profile E-mail  
 
 
PostPosted: 20 Jan 2013 
Персональный статус
User avatar
Joined: 02 Jul 2009
Posts: 293
Name: Александр
Чем богаты ........


Top
 Profile E-mail  
 
 
PostPosted: 24 Feb 2013 
Работнечег
User avatar
Joined: 28 Aug 2007
Posts: 5409
Lоcаtion: г. Москва
Age: 29
Name: Дима
Mennen - Back to the Real World (1996) :arrow: :losik:
viewtopic.php?f=186&t=11273


Top
 Profile E-mail  
 
 
PostPosted: 25 Feb 2013 
Хиппей (support team)
User avatar
Joined: 30 Jul 2007
Posts: 106427
Lоcаtion: Киев (Kyiv, UA)
Age: 45
Name: Andrey
Держи Виталь : Mennen - Age of Fools ( 1998 )

http://rusfolder.com/34598842

:thanx:

_________________


Top
 Profile E-mail  
 
 
PostPosted: 26 Feb 2013 
Хиппей (support team)
User avatar
Joined: 30 Jul 2007
Posts: 106427
Lоcаtion: Киев (Kyiv, UA)
Age: 45
Name: Andrey
Deris wrote:
Mennen - Age of Fools ( 1998 )

Во! Совсем же другая музыка и какой милый альбом :meloman:
По стилистике это все же больше вальяжный но мощный хард, временами переходящий в хэви.

Пока из прослушанных альбомов группы этот понравился больше всего :true:

7/10

mirror: MultiUp l Narod

Вторую балладку с альбома забираю в соответствующий топик :dance:

log
EAC extraction logfile from 9. February 2009, 9:19 for CD
Mennen / Age of Fools

Used drive : _NEC DVD_RW ND-3520A Adapter: 1 ID: 0
Read mode : Secure with NO C2, accurate stream, disable cache
Read offset correction : 48
Overread into Lead-In and Lead-Out : No

Used output format : Internal WAV Routines
44.100 Hz; 16 Bit; Stereo
Use compression offset : 0

Other options :
Fill up missing offset samples with silence : Yes
Delete leading and trailing silent blocks : No
Installed external ASPI interface


Range status and errors
Selected range
Filename F:\Mennen [1999][RED3003][EAC-Flac]byV\CDImage.wav

Peak level 99.7 %
Range quality 100.0 %
CRC 7534AC77
Copy OK

No errors occured

End of status report

cue
CATALOG 0000000000000
PERFORMER "Mennen"
TITLE "Age of Fools"
FILE "CDImage.flac" WAVE
TRACK 01 AUDIO
TITLE "The Age of Fools"
PERFORMER "Mennen"
ISRC 000000000000
INDEX 01 00:00:00
TRACK 02 AUDIO
TITLE "The Other Day"
PERFORMER "Mennen"
ISRC 000000000000
INDEX 01 05:12:57
TRACK 03 AUDIO
TITLE "Trust"
PERFORMER "Mennen"
ISRC 000000000000
INDEX 01 09:00:45
TRACK 04 AUDIO
TITLE "Nameless"
PERFORMER "Mennen"
ISRC 000000000000
INDEX 01 13:37:06
TRACK 05 AUDIO
TITLE "Time"
PERFORMER "Mennen"
ISRC 000000000000
INDEX 01 18:40:72
TRACK 06 AUDIO
TITLE "Homeless"
PERFORMER "Mennen"
ISRC 000000000000
INDEX 01 23:24:02
TRACK 07 AUDIO
TITLE "Trojan Horse"
PERFORMER "Mennen"
ISRC 000000000000
INDEX 01 27:36:42
TRACK 08 AUDIO
TITLE "One Man Show"
PERFORMER "Mennen"
ISRC 000000000000
INDEX 01 31:30:13
TRACK 09 AUDIO
TITLE "Destination Unknown"
PERFORMER "Mennen"
ISRC 000000000000
INDEX 01 36:48:20
TRACK 10 AUDIO
TITLE "Life"
PERFORMER "Mennen"
ISRC 000000000000
INDEX 01 41:08:66

_________________


Top
 Profile E-mail  
 
 
PostPosted: 07 Apr 2013 
Персональный статус
User avatar
Joined: 29 Sep 2009
Posts: 271
Lоcаtion: Надым
Age: 40
Name: Виталий
Mennen / Freakazoid
http://rutracker.org/forum/viewtopic.php?t=4404368 :true:


Top
 Profile E-mail  
 
 
PostPosted: 08 Apr 2013 
Хиппей (support team)
User avatar
Joined: 30 Jul 2007
Posts: 106427
Lоcаtion: Киев (Kyiv, UA)
Age: 45
Name: Andrey
:thanx: Вот и еще одна тема запросов закрыта :dance:

_________________


Top
 Profile E-mail  
 
 
PostPosted: 08 Apr 2013 
Хиппей (support team)
User avatar
Joined: 30 Jul 2007
Posts: 106427
Lоcаtion: Киев (Kyiv, UA)
Age: 45
Name: Andrey

Mennen - 2004 - Freakazoid [flac]

Image

Заматерела группа, повзрослела... Стала играть нечто такое вальяжное, раскрепощенное. Иногда Квинообразное, Скорпионзоподобное и Киссослащавое. Часто можно услышать модные примочки и акустическую гитарку.
Музыка стала намного мягче и размереннее.
Некоторые трэки понравились полностью. Но в целом альбом средненький, для фэнов, как сказать :pardon:
Здесь уже нет никакого хэви, так, мелодичный хард...

5/10

mirror: F-Bit l Narod

log
Exact Audio Copy V1.0 beta 3 from 29. August 2011

Отчёт EAC об извлечении, выполненном 7. апреля 2013, 15:28

Mennen / Freakazoid

Дисковод: HL-DT-STDVDRAM GU40N Adapter: 0 ID: 1

Режим чтения : Достоверность
Использование точного потока : Да
Отключение кэша аудио : Да
Использование указателей C2 : Нет

Коррекция смещения при чтении : 103
Способность читать области Lead-in и Lead-out : Нет
Заполнение пропущенных сэмплов тишиной : Да
Удаление блоков с тишиной в начале и конце : Нет
При вычислениях CRC использовались нулевые сэмплы : Да
Интерфейс : Встроенный Win32-интерфейс для Win NT/2000

Выходной формат : Пользовательский кодировщик
Выбранный битрейт : 128 kBit/s
Качество : Высокий
Добавление ID3-тега : Нет
Утилита сжатия : C:\Program Files (x86)\Easy CD-DA Extractor\ezcddax.exe
Дополнительные параметры : -V -8 -T "Date=%year%" -T "Genre=%genre%" %source%


TOC извлечённого CD

Трек | Старт | Длительность | Начальный сектор | Конечный сектор
---------------------------------------------------------------------
1 | 0:00.00 | 4:02.41 | 0 | 18190
2 | 4:02.41 | 3:16.48 | 18191 | 32938
3 | 7:19.14 | 3:52.34 | 32939 | 50372
4 | 11:11.48 | 5:12.67 | 50373 | 73839
5 | 16:24.40 | 5:01.70 | 73840 | 96484
6 | 21:26.35 | 3:11.18 | 96485 | 110827
7 | 24:37.53 | 3:26.70 | 110828 | 126347
8 | 28:04.48 | 4:45.00 | 126348 | 147722
9 | 32:49.48 | 6:31.40 | 147723 | 177087
10 | 39:21.13 | 3:25.62 | 177088 | 192524
11 | 42:47.00 | 3:51.59 | 192525 | 209908
12 | 46:38.59 | 4:04.35 | 209909 | 228243
13 | 50:43.19 | 4:45.70 | 228244 | 249688
14 | 55:29.14 | 3:39.36 | 249689 | 266149


Характеристики диапазона извлечения и сообщения об ошибках

Выбранный диапазон

Имя файла C:\Users\workutagin\Desktop\Mennen - Freakazoid.wav

Пиковый уровень 100.0 %
Скорость извлечения 2.1 X
Качество диапазона 100.0 %
CRC теста A3EA6A45
CRC копии A3EA6A45
Копирование... OK

Ошибок не произошло


Конец отчёта

==== Контрольная сумма отчёта CBAAEC1F43DE41A3B6DCAC142525AB8E451EB5701C336C11885A4B3BB05A3DA9 ====

cue
REM GENRE "Heavy Metal"
REM DATE 2004
REM DISCID CF0DDC0E
REM COMMENT "ExactAudioCopy v1.0b3"
PERFORMER "Mennen"
TITLE " Freakazoid"
FILE "Mennen - Freakazoid.flac" WAVE
TRACK 01 AUDIO
TITLE "Down"
PERFORMER "Unknown Artist"
ISRC NLG070400001
INDEX 01 00:00:00
TRACK 02 AUDIO
TITLE "Above The Waterline"
PERFORMER "Unknown Artist"
ISRC NLG070400002
INDEX 01 04:02:41
TRACK 03 AUDIO
TITLE "It's Over"
PERFORMER "Unknown Artist"
ISRC NLG070400003
INDEX 00 07:17:26
INDEX 01 07:19:14
TRACK 04 AUDIO
TITLE "Rain"
PERFORMER "Unknown Artist"
ISRC NLG070400004
INDEX 01 11:11:48
TRACK 05 AUDIO
TITLE "Secrets And Lies "
PERFORMER "Unknown Artist"
ISRC NLG070400005
INDEX 00 16:22:62
INDEX 01 16:24:40
TRACK 06 AUDIO
TITLE "Bob"
PERFORMER "Unknown Artist"
ISRC NLG070400006
INDEX 00 21:24:34
INDEX 01 21:26:35
TRACK 07 AUDIO
TITLE "Freakazoid"
PERFORMER "Unknown Artist"
ISRC NLG070400007
INDEX 00 24:37:00
INDEX 01 24:37:53
TRACK 08 AUDIO
TITLE "These Good Times"
PERFORMER "Unknown Artist"
ISRC NLG070400008
INDEX 00 28:03:12
INDEX 01 28:04:48
TRACK 09 AUDIO
TITLE "Believe"
PERFORMER "Unknown Artist"
ISRC NLG070400009
INDEX 00 32:49:03
INDEX 01 32:49:48
TRACK 10 AUDIO
TITLE "The World Stopped Turning "
PERFORMER "Unknown Artist"
ISRC NLG070400010
INDEX 00 39:20:19
INDEX 01 39:21:13
TRACK 11 AUDIO
TITLE "Wicked White"
PERFORMER "Unknown Artist"
ISRC NLG070400011
INDEX 00 42:45:09
INDEX 01 42:47:00
TRACK 12 AUDIO
TITLE "Blue "
PERFORMER "Unknown Artist"
ISRC NLG070400012
INDEX 01 46:38:59
TRACK 13 AUDIO
TITLE "Loose Somebody "
PERFORMER "Unknown Artist"
ISRC NLG070400014
INDEX 01 50:43:19
TRACK 14 AUDIO
TITLE "Taste Of Paradise"
PERFORMER "Unknown Artist"
ISRC NLG070400013
INDEX 01 55:29:14

_________________


Top
 Profile E-mail  
 
 
PostPosted: 29 Aug 2013 
Хиппей (support team)
User avatar
Joined: 30 Jul 2007
Posts: 106427
Lоcаtion: Киев (Kyiv, UA)
Age: 45
Name: Andrey
Mennen - 1994 - Mennen (Japan) [flac]

Image

С торрента вроде стянул :thanx: Проверяем по логу, если что :dance:

mirror: F-Bit l eDisk l Narod

Альбом неплох, очень даже неплох и местами хорош. Хард-рок. Мелодичный. Да.

6/10

log
Exact Audio Copy V0.99 prebeta 5 from 4. May 2009

EAC extraction logfile from 13. December 2012, 23:08

Mennen / Mennen

Used drive : PIONEER DVD-RW DVR-116D Adapter: 0 ID: 0

Read mode : Secure
Utilize accurate stream : Yes
Defeat audio cache : Yes
Make use of C2 pointers : No

Read offset correction : 96
Overread into Lead-In and Lead-Out : No
Fill up missing offset samples with silence : Yes
Delete leading and trailing silent blocks : No
Null samples used in CRC calculations : Yes
Used interface : Native Win32 interface for Win NT & 2000

Used output format : User Defined Encoder
Selected bitrate : 32 kBit/s
Quality : High
Add ID3 tag : No
Command line compressor : C:\Program Files\Exact Audio Copy\Flac\flac.exe
Additional command line options : -6 -V %s


TOC of the extracted CD

Track | Start | Length | Start sector | End sector
---------------------------------------------------------
1 | 0:00.37 | 4:46.37 | 37 | 21523
2 | 4:46.74 | 3:19.25 | 21524 | 36473
3 | 8:06.24 | 4:34.50 | 36474 | 57073
4 | 12:40.74 | 6:44.00 | 57074 | 87373
5 | 19:24.74 | 3:54.00 | 87374 | 104923
6 | 23:18.74 | 7:30.00 | 104924 | 138673
7 | 30:48.74 | 5:29.00 | 138674 | 163348
8 | 36:17.74 | 6:56.00 | 163349 | 194548
9 | 43:13.74 | 4:55.00 | 194549 | 216673
10 | 48:08.74 | 4:02.13 | 216674 | 234836
11 | 52:11.12 | 5:20.30 | 234837 | 258866


Range status and errors

Selected range

Filename D:\Музыка\Lossless\Mennen - Mennen (1994)(Japan)\Mennen - Mennen.wav

Peak level 100.0 %
Range quality 100.0 %
Copy CRC A0E9774A
Copy OK

No errors occurred


AccurateRip summary

Track 1 accurately ripped (confidence 1) [CFB6CDF2]
Track 2 accurately ripped (confidence 1) [BBE9E0C7]
Track 3 accurately ripped (confidence 1) [25F59332]
Track 4 accurately ripped (confidence 1) [C907A373]
Track 5 accurately ripped (confidence 1) [E5E58181]
Track 6 accurately ripped (confidence 1) [057D7873]
Track 7 accurately ripped (confidence 1) [4FA42A8E]
Track 8 accurately ripped (confidence 1) [7F7EAF35]
Track 9 accurately ripped (confidence 1) [FC6A9602]
Track 10 accurately ripped (confidence 1) [1C03299F]
Track 11 accurately ripped (confidence 1) [AFF69DA1]

All tracks accurately ripped

End of status report

cue
REM GENRE "Heavy Metal"
REM DATE 1994
REM DISCID 9D0D7B0B
REM COMMENT "ExactAudioCopy v0.99pb5"
PERFORMER "Mennen"
TITLE "Mennen"
FILE "Mennen - Mennen.flac" WAVE
TRACK 01 AUDIO
TITLE "Power On"
PERFORMER "Mennen"
INDEX 00 00:00:00
INDEX 01 00:00:37
TRACK 02 AUDIO
TITLE "Hot Summer Nights"
PERFORMER "Mennen"
INDEX 00 04:46:03
INDEX 01 04:46:74
TRACK 03 AUDIO
TITLE "Killerdog"
PERFORMER "Mennen"
INDEX 01 08:06:24
TRACK 04 AUDIO
TITLE "Outsiders Of The Storm"
PERFORMER "Mennen"
INDEX 00 12:38:35
INDEX 01 12:40:74
TRACK 05 AUDIO
TITLE "Movin On"
PERFORMER "Mennen"
INDEX 00 19:23:40
INDEX 01 19:24:74
TRACK 06 AUDIO
TITLE "World Affair"
PERFORMER "Mennen"
INDEX 00 23:17:60
INDEX 01 23:18:74
TRACK 07 AUDIO
TITLE "House For Sale"
PERFORMER "Mennen"
INDEX 00 30:47:58
INDEX 01 30:48:74
TRACK 08 AUDIO
TITLE "Never Be The Same"
PERFORMER "Mennen"
INDEX 00 36:17:28
INDEX 01 36:17:74
TRACK 09 AUDIO
TITLE "Remember The Days"
PERFORMER "Mennen"
INDEX 00 43:12:65
INDEX 01 43:13:74
TRACK 10 AUDIO
TITLE "Rock And Roll Over"
PERFORMER "Mennen"
INDEX 00 48:08:15
INDEX 01 48:08:74
TRACK 11 AUDIO
TITLE "Lost (Bonus)"
PERFORMER "Mennen"
INDEX 00 52:09:50
INDEX 01 52:11:12

_________________


Top
 Profile E-mail  
 
Display posts from previous:  Sort by  
Post new topic Reply to topic  [ 17 posts ] 

All times are UTC + 3 hours


Who is online

Users browsing this forum: No registered users and 3 guests


You cannot post new topics in this forum
You cannot reply to topics in this forum
You cannot edit your posts in this forum
You cannot delete your posts in this forum
You cannot post attachments in this forum

Search for:
Яндекс.Метрика
Powered by phpBB © 2000, 2002, 2005, 2007 phpBB Group