\m/ 80's metal \m/

Информационно-аналитический форум "80 см пыли" (In Search We Trust) "У нас никто никуда не спешит"
Me For You - http://me-4u.com
It is currently 24 Sep 2018

All times are UTC + 3 hours

Spoiler
Chat - temporary registration for foreign users (please leave your application here)







Post new topic Reply to topic  [ 8 posts ] 
Author Message
 
PostPosted: 14 Dec 2012 
Работнечег
User avatar
Joined: 28 Aug 2007
Posts: 5409
Lоcаtion: г. Москва
Age: 29
Name: Дима
Image

Year: 1994
Label: Victor Entertainment
Country: Netherlands
Style: Heavy Metal
Format: Flac+Cue+Log+Covers
Size: 432 Mb

Line-Up:
Fon Janssen - Drums and Backing Vocals
Joss Mennen - Vocals
Fenk Aendenroomer - Bass and Backing Vocals
P.P. - Guitars
Eric Van De Kerkhof - Guitars and Backing Vocals


Tracklist:
1. Power On 04:46
2. Hot Summer Nights 03:19
3. Killerdog 04:34
4. Outsiders Of The Storm 06:43
5. Movin' On 03:53
6. World Affair 07:29
7. House For Sale 05:28
8. Never Be The Same 06:55
9. Remember The Days 04:54
10. Rock And Roll Over 04:02
11. Lost (Bonus) 05:20

LOG
Exact Audio Copy V0.99 prebeta 5 from 4. May 2009

EAC extraction logfile from 13. December 2012, 23:08

Mennen / Mennen

Used drive : PIONEER DVD-RW DVR-116D Adapter: 0 ID: 0

Read mode : Secure
Utilize accurate stream : Yes
Defeat audio cache : Yes
Make use of C2 pointers : No

Read offset correction : 96
Overread into Lead-In and Lead-Out : No
Fill up missing offset samples with silence : Yes
Delete leading and trailing silent blocks : No
Null samples used in CRC calculations : Yes
Used interface : Native Win32 interface for Win NT & 2000

Used output format : User Defined Encoder
Selected bitrate : 32 kBit/s
Quality : High
Add ID3 tag : No
Command line compressor : C:\Program Files\Exact Audio Copy\Flac\flac.exe
Additional command line options : -6 -V %s


TOC of the extracted CD

Track | Start | Length | Start sector | End sector
---------------------------------------------------------
1 | 0:00.37 | 4:46.37 | 37 | 21523
2 | 4:46.74 | 3:19.25 | 21524 | 36473
3 | 8:06.24 | 4:34.50 | 36474 | 57073
4 | 12:40.74 | 6:44.00 | 57074 | 87373
5 | 19:24.74 | 3:54.00 | 87374 | 104923
6 | 23:18.74 | 7:30.00 | 104924 | 138673
7 | 30:48.74 | 5:29.00 | 138674 | 163348
8 | 36:17.74 | 6:56.00 | 163349 | 194548
9 | 43:13.74 | 4:55.00 | 194549 | 216673
10 | 48:08.74 | 4:02.13 | 216674 | 234836
11 | 52:11.12 | 5:20.30 | 234837 | 258866


Range status and errors

Selected range

Filename D:\Музыка\Lossless\Mennen - Mennen (1994)(Japan)\Mennen - Mennen.wav

Peak level 100.0 %
Range quality 100.0 %
Copy CRC A0E9774A
Copy OK

No errors occurred


AccurateRip summary

Track 1 accurately ripped (confidence 1) [CFB6CDF2]
Track 2 accurately ripped (confidence 1) [BBE9E0C7]
Track 3 accurately ripped (confidence 1) [25F59332]
Track 4 accurately ripped (confidence 1) [C907A373]
Track 5 accurately ripped (confidence 1) [E5E58181]
Track 6 accurately ripped (confidence 1) [057D7873]
Track 7 accurately ripped (confidence 1) [4FA42A8E]
Track 8 accurately ripped (confidence 1) [7F7EAF35]
Track 9 accurately ripped (confidence 1) [FC6A9602]
Track 10 accurately ripped (confidence 1) [1C03299F]
Track 11 accurately ripped (confidence 1) [AFF69DA1]

All tracks accurately ripped

End of status report

CUE
REM GENRE "Heavy Metal"
REM DATE 1994
REM DISCID 9D0D7B0B
REM COMMENT "ExactAudioCopy v0.99pb5"
PERFORMER "Mennen"
TITLE "Mennen"
FILE "Mennen - Mennen.flac" WAVE
TRACK 01 AUDIO
TITLE "Power On"
PERFORMER "Mennen"
INDEX 00 00:00:00
INDEX 01 00:00:37
TRACK 02 AUDIO
TITLE "Hot Summer Nights"
PERFORMER "Mennen"
INDEX 00 04:46:03
INDEX 01 04:46:74
TRACK 03 AUDIO
TITLE "Killerdog"
PERFORMER "Mennen"
INDEX 01 08:06:24
TRACK 04 AUDIO
TITLE "Outsiders Of The Storm"
PERFORMER "Mennen"
INDEX 00 12:38:35
INDEX 01 12:40:74
TRACK 05 AUDIO
TITLE "Movin On"
PERFORMER "Mennen"
INDEX 00 19:23:40
INDEX 01 19:24:74
TRACK 06 AUDIO
TITLE "World Affair"
PERFORMER "Mennen"
INDEX 00 23:17:60
INDEX 01 23:18:74
TRACK 07 AUDIO
TITLE "House For Sale"
PERFORMER "Mennen"
INDEX 00 30:47:58
INDEX 01 30:48:74
TRACK 08 AUDIO
TITLE "Never Be The Same"
PERFORMER "Mennen"
INDEX 00 36:17:28
INDEX 01 36:17:74
TRACK 09 AUDIO
TITLE "Remember The Days"
PERFORMER "Mennen"
INDEX 00 43:12:65
INDEX 01 43:13:74
TRACK 10 AUDIO
TITLE "Rock And Roll Over"
PERFORMER "Mennen"
INDEX 00 48:08:15
INDEX 01 48:08:74
TRACK 11 AUDIO
TITLE "Lost (Bonus)"
PERFORMER "Mennen"
INDEX 00 52:09:50
INDEX 01 52:11:12


Narod.Ru

phpBB [youtube]

phpBB [youtube]


Очень хороший альбом, вообще первые 3 альбома у группы очень хорошие. Тем кто не слышал, советую ознакомиться!


Top
 Profile E-mail  
 
 
PostPosted: 14 Dec 2012 
спирт 100%
User avatar
Joined: 22 Sep 2008
Posts: 4282
Age: 47
Name: Саня
Слышал, ознакомлюсь ещё раз :smile: . Спасибо,Дим! :thanx:


Top
 Profile  
 
 
PostPosted: 16 Dec 2012 
Old Time Rock`n`Roll
User avatar
Joined: 23 Jun 2008
Posts: 3354
Lоcаtion: г.Ульяновск
Age: 40
Name: Константин
Спасибо за альбом, Дима, в свое время подумывал о покупке.
Альбом неплохой, Скорпионс напоминает, жаль вокал немного слабоват для хэви. Мэннен это вокалист Zinatra, голландских аорщиков.
:thanx:


Top
 Profile  
 
 
PostPosted: 16 Dec 2012 
ТрэшЭрос
User avatar
Joined: 18 Jul 2011
Posts: 2296
Lоcаtion: Гулькевичи
Age: 43
Name: Александр
Увы, не моё... :nea:

_________________
Thrash no trash!!!


Top
 Profile E-mail  
 
 
PostPosted: 16 Dec 2012 
Я набрал 1000 сообщений!
Joined: 24 Oct 2009
Posts: 2033
Lоcаtion: Оренбург
Age: 55
Name: Юра
Спасибо! Не знаю таких.

_________________
:dash: I am happy!


Top
 Profile E-mail  
 
 
PostPosted: 19 Jan 2013 
Персональный статус
User avatar
Joined: 02 Jul 2009
Posts: 293
Name: Александр
Классный альбом !!!!!!!!!!!!!!! Огромное спасибо !!!!!!!!!!!!!!!!!!! :thanx: :thanx: :thanx:
Вот бы ещё "Back to the Real World (1996)" и " Freakazoid (2004) " :oops:


Top
 Profile E-mail  
 
 
PostPosted: 20 Jan 2013 
Хиппей (support team)
User avatar
Joined: 30 Jul 2007
Posts: 106508
Lоcаtion: Киев (Kyiv, UA)
Age: 45
Name: Andrey
:thanx:

mirror: MultiUp l Narod

_________________


Top
 Profile E-mail  
 
 
PostPosted: 20 Jan 2013 
Персональный статус
User avatar
Joined: 29 Sep 2009
Posts: 271
Lоcаtion: Надым
Age: 40
Name: Виталий
church
:true: :thanx:


Top
 Profile E-mail  
 
Display posts from previous:  Sort by  
Post new topic Reply to topic  [ 8 posts ] 

All times are UTC + 3 hours


Who is online

Users browsing this forum: No registered users and 2 guests


You cannot post new topics in this forum
You cannot reply to topics in this forum
You cannot edit your posts in this forum
You cannot delete your posts in this forum
You cannot post attachments in this forum

Search for:
Яндекс.Метрика
Powered by phpBB © 2000, 2002, 2005, 2007 phpBB Group