\m/ 80's metal \m/

Информационно-аналитический форум "80 см пыли" (In Search We Trust) "У нас никто никуда не спешит"
Me For You - http://me-4u.com
It is currently 17 Dec 2018

All times are UTC + 3 hours

Spoiler
Chat - temporary registration for foreign users (please leave your application here)







Post new topic Reply to topic  [ 50 posts ]  Go to page 1, 2, 3  Next
Author Message
 
PostPosted: 10 Dec 2012 
Partisanen - nicht kapitulieren!!
User avatar
Joined: 25 Dec 2011
Posts: 6764
Lоcаtion: партизанские леса
Age: 46
Name: Владимир
Morbid Saint - Thrashaholic 2012 (2CD Compilation)

Image

Band: Morbid Saint
Album: Thrashaholic (2CD Compilation)
Year: 2012
Label: Self-released/independent
Genre: Thrash Metal
Coutry: USA
Format: Flac (tracks) + Log + Cue
Size: 588,8 МБ
Scans: нема

Переиздание 1988 - "Spectrum of Death" и 1992 - "Destruction System" (демо), оба ремастерированы
Утянуто с what.cd, автор - mentally_ill

Disc 1 (00:40:08)
01. Lock up Your Children 03:31
02. Burned at the Stake 02:13
03. Assassin 07:00
04. Damien 02:39
05. Crying for Death 03:45
06. Spectrum of Death 00:40 instrumental
07. Scars 07:07
08. Beyond the Gates of Hell 04:45
09. Intro 00:34 instrumental
10. Death Before Dawn 04:27
11. Thrashaholic 02:35
12. Outro 00:52
CD1 EAC log
Exact Audio Copy V1.0 beta 3 from 29. August 2011

EAC extraction logfile from 21. May 2012, 21:25

Morbid Saint / Thrashaholic

Used drive : MATSHITABD-MLT UJ-220S Adapter: 3 ID: 0

Read mode : Secure
Utilize accurate stream : Yes
Defeat audio cache : Yes
Make use of C2 pointers : No

Read offset correction : 102
Overread into Lead-In and Lead-Out : No
Fill up missing offset samples with silence : Yes
Delete leading and trailing silent blocks : No
Null samples used in CRC calculations : Yes
Used interface : Native Win32 interface for Win NT & 2000
Gap handling : Appended to previous track

Used output format : User Defined Encoder
Selected bitrate : 1024 kBit/s
Quality : High
Add ID3 tag : No
Command line compressor : C:\Program Files (x86)\FLAC\flac.exe
Additional command line options : -8 -V -T "ARTIST=%artist%" -T "TITLE=%title%" -T "ALBUM=%albumtitle%" -T "DATE=%year%" -T "TRACKNUMBER=%tracknr%" -T "GENRE=%genre%" -T "PERFORMER=%albuminterpret%" -T "COMPOSER=%composer%" %haslyrics%--tag-from-file=LYRICS="%lyricsfile%"%haslyrics% -T "ALBUMARTIST=%albumartist%" -T "DISCNUMBER=%cdnumber%" -T "TOTALDISCS=%totalcds%" -T "TOTALTRACKS=%numtracks%" -T "COMMENT=%comment%" %source% -o %dest%


TOC of the extracted CD

Track | Start | Length | Start sector | End sector
---------------------------------------------------------
1 | 0:00.00 | 3:30.37 | 0 | 15786
2 | 3:30.37 | 2:12.38 | 15787 | 25724
3 | 5:43.00 | 6:59.60 | 25725 | 57209
4 | 12:42.60 | 2:38.68 | 57210 | 69127
5 | 15:21.53 | 3:44.59 | 69128 | 85986
6 | 19:06.37 | 0:40.32 | 85987 | 89018
7 | 19:46.69 | 7:06.47 | 89019 | 121015
8 | 26:53.41 | 4:44.71 | 121016 | 142386
9 | 31:38.37 | 0:34.19 | 142387 | 144955
10 | 32:12.56 | 4:26.44 | 144956 | 164949
11 | 36:39.25 | 2:35.00 | 164950 | 176574
12 | 39:14.25 | 0:52.30 | 176575 | 180504


Track 1

Filename D:\rips\Morbid Saint - Thrashaholic\CD1 - Spectrum Of Death\01 - Lock Up Your Children.wav

Pre-gap length 0:00:02.00

Peak level 85.7 %
Extraction speed 2.1 X
Track quality 99.9 %
Test CRC 44868729
Copy CRC 44868729
Track not present in AccurateRip database
Copy OK

Track 2

Filename D:\rips\Morbid Saint - Thrashaholic\CD1 - Spectrum Of Death\02 - Burnd At The Stake.wav

Peak level 96.2 %
Extraction speed 2.3 X
Track quality 100.0 %
Test CRC 241B8A3C
Copy CRC 241B8A3C
Track not present in AccurateRip database
Copy OK

Track 3

Filename D:\rips\Morbid Saint - Thrashaholic\CD1 - Spectrum Of Death\03 - Assassin.wav

Peak level 86.8 %
Extraction speed 3.0 X
Track quality 100.0 %
Test CRC FAD64F7F
Copy CRC FAD64F7F
Track not present in AccurateRip database
Copy OK

Track 4

Filename D:\rips\Morbid Saint - Thrashaholic\CD1 - Spectrum Of Death\04 - Damien.wav

Peak level 96.6 %
Extraction speed 2.8 X
Track quality 100.0 %
Test CRC 8C896FBD
Copy CRC 8C896FBD
Track not present in AccurateRip database
Copy OK

Track 5

Filename D:\rips\Morbid Saint - Thrashaholic\CD1 - Spectrum Of Death\05 - Crying For Death.wav

Peak level 92.6 %
Extraction speed 2.8 X
Track quality 99.9 %
Test CRC CDC000FB
Copy CRC CDC000FB
Track not present in AccurateRip database
Copy OK

Track 6

Filename D:\rips\Morbid Saint - Thrashaholic\CD1 - Spectrum Of Death\06 - Spectrum Of Death.wav

Peak level 87.7 %
Extraction speed 1.9 X
Track quality 100.0 %
Test CRC 6CFCBB3D
Copy CRC 6CFCBB3D
Track not present in AccurateRip database
Copy OK

Track 7

Filename D:\rips\Morbid Saint - Thrashaholic\CD1 - Spectrum Of Death\07 - Scars.wav

Peak level 100.0 %
Extraction speed 3.4 X
Track quality 99.9 %
Test CRC 18D90322
Copy CRC 18D90322
Track not present in AccurateRip database
Copy OK

Track 8

Filename D:\rips\Morbid Saint - Thrashaholic\CD1 - Spectrum Of Death\08 - Beyond The Gates Of Hell.wav

Peak level 93.0 %
Extraction speed 3.7 X
Track quality 100.0 %
Test CRC 5370013D
Copy CRC 5370013D
Track not present in AccurateRip database
Copy OK

Track 9

Filename D:\rips\Morbid Saint - Thrashaholic\CD1 - Spectrum Of Death\09 - Intro.wav

Peak level 74.3 %
Extraction speed 1.9 X
Track quality 100.0 %
Test CRC 6BD6F0B0
Copy CRC 6BD6F0B0
Track not present in AccurateRip database
Copy OK

Track 10

Filename D:\rips\Morbid Saint - Thrashaholic\CD1 - Spectrum Of Death\10 - Death Before Dawn.wav

Peak level 96.0 %
Extraction speed 3.4 X
Track quality 99.9 %
Test CRC D05E564A
Copy CRC D05E564A
Track not present in AccurateRip database
Copy OK

Track 11

Filename D:\rips\Morbid Saint - Thrashaholic\CD1 - Spectrum Of Death\11 - Thrashaholic.wav

Peak level 100.0 %
Extraction speed 3.0 X
Track quality 99.9 %
Test CRC 823F8C71
Copy CRC 823F8C71
Track not present in AccurateRip database
Copy OK

Track 12

Filename D:\rips\Morbid Saint - Thrashaholic\CD1 - Spectrum Of Death\12 - Outro.wav

Peak level 100.0 %
Extraction speed 2.7 X
Track quality 100.0 %
Test CRC 8684FE26
Copy CRC 8684FE26
Track not present in AccurateRip database
Copy OK


None of the tracks are present in the AccurateRip database

No errors occurred

End of status report

---- CUETools DB Plugin V2.1.3

[CTDB TOCID: DSVKKBkgn0NJBvlsK3I_34eTRWQ-] disk not present in database, Submit result: DSVKKBkgn0NJBvlsK3I_34eTRWQ- has been uploaded


==== Log checksum 0E34F576BDE1F4A3FADF2E21C381D8ED2D256A95ED0C7521AB7E5C2EECF066E6 ====

CD1 cue
REM GENRE "Thrash metal"
REM DATE 2012
REM DISCID 8F09660C
REM COMMENT "ExactAudioCopy v1.0b3"
PERFORMER "Morbid Saint"
TITLE "Thrashaholic"
FILE "01 - Lock Up Your Children.wav" WAVE
TRACK 01 AUDIO
TITLE "Lock Up Your Children"
PERFORMER "Morbid Saint"
ISRC 000000000000
INDEX 01 00:00:00
FILE "02 - Burnd At The Stake.wav" WAVE
TRACK 02 AUDIO
TITLE "Burnd At The Stake"
PERFORMER "Morbid Saint"
ISRC 000000000000
INDEX 01 00:00:00
FILE "03 - Assassin.wav" WAVE
TRACK 03 AUDIO
TITLE "Assassin"
PERFORMER "Morbid Saint"
ISRC 000000000000
INDEX 01 00:00:00
FILE "04 - Damien.wav" WAVE
TRACK 04 AUDIO
TITLE "Damien"
PERFORMER "Morbid Saint"
ISRC 000000000000
INDEX 01 00:00:00
FILE "05 - Crying For Death.wav" WAVE
TRACK 05 AUDIO
TITLE "Crying For Death"
PERFORMER "Morbid Saint"
ISRC 000000000000
INDEX 01 00:00:00
FILE "06 - Spectrum Of Death.wav" WAVE
TRACK 06 AUDIO
TITLE "Spectrum Of Death"
PERFORMER "Morbid Saint"
ISRC 000000000000
INDEX 01 00:00:00
FILE "07 - Scars.wav" WAVE
TRACK 07 AUDIO
TITLE "Scars"
PERFORMER "Morbid Saint"
ISRC 000000000000
INDEX 01 00:00:00
FILE "08 - Beyond The Gates Of Hell.wav" WAVE
TRACK 08 AUDIO
TITLE "Beyond The Gates Of Hell"
PERFORMER "Morbid Saint"
ISRC 000000000000
INDEX 01 00:00:00
FILE "09 - Intro.wav" WAVE
TRACK 09 AUDIO
TITLE "Intro"
PERFORMER "Morbid Saint"
ISRC 000000000000
INDEX 01 00:00:00
FILE "10 - Death Before Dawn.wav" WAVE
TRACK 10 AUDIO
TITLE "Death Before Dawn"
PERFORMER "Morbid Saint"
ISRC 000000000000
INDEX 01 00:00:00
FILE "11 - Thrashaholic.wav" WAVE
TRACK 11 AUDIO
TITLE "Thrashaholic"
PERFORMER "Morbid Saint"
ISRC 000000000000
INDEX 01 00:00:00
FILE "12 - Outro.wav" WAVE
TRACK 12 AUDIO
TITLE "Outro"
PERFORMER "Morbid Saint"
ISRC 000000000000
INDEX 01 00:00:00

Image Image

Disc 2 (00:43:16)
01. Intro 01:02 instrumental
02. Destruction System 04:38
03. Darkness Unseen 04:27
04. Depth of Sanity 04:19
05. Disciples of Discipline 04:02
06. Spectrum of Death II 00:52 instrumental
07. Halls of Terror 04:36
08. Living Misery 03:45
09. Sign of the Times 04:25
10. Final Exit 03:00
11. Dying Day 03:18
12. Life's Blood 04:22
13. Outro 00:30 instrumental
CD2 EAC log
Exact Audio Copy V1.0 beta 3 from 29. August 2011

EAC extraction logfile from 21. May 2012, 22:37

Morbid Saint / Thrashaholic

Used drive : MATSHITABD-MLT UJ-220S Adapter: 3 ID: 0

Read mode : Secure
Utilize accurate stream : Yes
Defeat audio cache : Yes
Make use of C2 pointers : No

Read offset correction : 102
Overread into Lead-In and Lead-Out : No
Fill up missing offset samples with silence : Yes
Delete leading and trailing silent blocks : No
Null samples used in CRC calculations : Yes
Used interface : Native Win32 interface for Win NT & 2000
Gap handling : Appended to previous track

Used output format : User Defined Encoder
Selected bitrate : 1024 kBit/s
Quality : High
Add ID3 tag : No
Command line compressor : C:\Program Files (x86)\FLAC\flac.exe
Additional command line options : -8 -V -T "ARTIST=%artist%" -T "TITLE=%title%" -T "ALBUM=%albumtitle%" -T "DATE=%year%" -T "TRACKNUMBER=%tracknr%" -T "GENRE=%genre%" -T "PERFORMER=%albuminterpret%" -T "COMPOSER=%composer%" %haslyrics%--tag-from-file=LYRICS="%lyricsfile%"%haslyrics% -T "ALBUMARTIST=%albumartist%" -T "DISCNUMBER=%cdnumber%" -T "TOTALDISCS=%totalcds%" -T "TOTALTRACKS=%numtracks%" -T "COMMENT=%comment%" %source% -o %dest%


TOC of the extracted CD

Track | Start | Length | Start sector | End sector
---------------------------------------------------------
1 | 0:00.00 | 1:02.25 | 0 | 4674
2 | 1:02.25 | 4:38.13 | 4675 | 25537
3 | 5:40.38 | 4:27.10 | 25538 | 45572
4 | 10:07.48 | 4:18.46 | 45573 | 64968
5 | 14:26.19 | 4:01.72 | 64969 | 83115
6 | 18:28.16 | 0:51.70 | 83116 | 87010
7 | 19:20.11 | 4:35.36 | 87011 | 107671
8 | 23:55.47 | 3:45.20 | 107672 | 124566
9 | 27:40.67 | 4:24.64 | 124567 | 144430
10 | 32:05.56 | 2:59.71 | 144431 | 157926
11 | 35:05.52 | 3:17.56 | 157927 | 172757
12 | 38:23.33 | 4:22.17 | 172758 | 192424
13 | 42:45.50 | 0:29.53 | 192425 | 194652


Track 1

Filename D:\rips\Morbid Saint - Thrashaholic\CD2 - Destruction System\01 - Intro.wav

Pre-gap length 0:00:02.00

Peak level 69.0 %
Extraction speed 1.7 X
Track quality 100.0 %
Test CRC 815CB476
Copy CRC 815CB476
Track not present in AccurateRip database
Copy OK

Track 2

Filename D:\rips\Morbid Saint - Thrashaholic\CD2 - Destruction System\02 - Destruction System.wav

Peak level 94.0 %
Extraction speed 2.6 X
Track quality 100.0 %
Test CRC D447A16E
Copy CRC D447A16E
Track not present in AccurateRip database
Copy OK

Track 3

Filename D:\rips\Morbid Saint - Thrashaholic\CD2 - Destruction System\03 - Darkness Unseen.wav

Peak level 93.9 %
Extraction speed 2.8 X
Track quality 100.0 %
Test CRC C33FBF2B
Copy CRC C33FBF2B
Track not present in AccurateRip database
Copy OK

Track 4

Filename D:\rips\Morbid Saint - Thrashaholic\CD2 - Destruction System\04 - Depth Of Sanity.wav

Peak level 93.9 %
Extraction speed 2.7 X
Track quality 99.9 %
Test CRC 90CD0F7B
Copy CRC 90CD0F7B
Track not present in AccurateRip database
Copy OK

Track 5

Filename D:\rips\Morbid Saint - Thrashaholic\CD2 - Destruction System\05 - Disciples Of Discipline.wav

Peak level 93.9 %
Extraction speed 3.2 X
Track quality 100.0 %
Test CRC 0D96A66A
Copy CRC 0D96A66A
Track not present in AccurateRip database
Copy OK

Track 6

Filename D:\rips\Morbid Saint - Thrashaholic\CD2 - Destruction System\06 - Spectrum Of Death II.wav

Peak level 67.9 %
Extraction speed 2.1 X
Track quality 100.0 %
Test CRC E4917D1E
Copy CRC E4917D1E
Track not present in AccurateRip database
Copy OK

Track 7

Filename D:\rips\Morbid Saint - Thrashaholic\CD2 - Destruction System\07 - Halls Of Terror.wav

Peak level 94.0 %
Extraction speed 3.4 X
Track quality 100.0 %
Test CRC EF0C3BB0
Copy CRC EF0C3BB0
Track not present in AccurateRip database
Copy OK

Track 8

Filename D:\rips\Morbid Saint - Thrashaholic\CD2 - Destruction System\08 - Living Misery.wav

Peak level 94.0 %
Extraction speed 3.5 X
Track quality 100.0 %
Test CRC C0793727
Copy CRC C0793727
Track not present in AccurateRip database
Copy OK

Track 9

Filename D:\rips\Morbid Saint - Thrashaholic\CD2 - Destruction System\09 - Sign Of The Times.wav

Peak level 94.0 %
Extraction speed 3.7 X
Track quality 100.0 %
Test CRC BD23B26F
Copy CRC BD23B26F
Track not present in AccurateRip database
Copy OK

Track 10

Filename D:\rips\Morbid Saint - Thrashaholic\CD2 - Destruction System\10 - Final Exit.wav

Peak level 93.9 %
Extraction speed 3.0 X
Track quality 99.9 %
Test CRC 5C4AB423
Copy CRC 5C4AB423
Track not present in AccurateRip database
Copy OK

Track 11

Filename D:\rips\Morbid Saint - Thrashaholic\CD2 - Destruction System\11 - Dying Day.wav

Peak level 94.7 %
Extraction speed 3.8 X
Track quality 100.0 %
Test CRC 3C8460EA
Copy CRC 3C8460EA
Track not present in AccurateRip database
Copy OK

Track 12

Filename D:\rips\Morbid Saint - Thrashaholic\CD2 - Destruction System\12 - Life's Blood.wav

Peak level 94.1 %
Extraction speed 4.0 X
Track quality 100.0 %
Test CRC C169B7E3
Copy CRC C169B7E3
Track not present in AccurateRip database
Copy OK

Track 13

Filename D:\rips\Morbid Saint - Thrashaholic\CD2 - Destruction System\13 - Outro.wav

Peak level 55.8 %
Extraction speed 2.1 X
Track quality 100.0 %
Test CRC E54D0FF4
Copy CRC E54D0FF4
Track not present in AccurateRip database
Copy OK


None of the tracks are present in the AccurateRip database

No errors occurred

End of status report

---- CUETools DB Plugin V2.1.3

[CTDB TOCID: GrR8PkTuDVrWii1ql6CD7NGcVSU-] disk not present in database, Submit result: GrR8PkTuDVrWii1ql6CD7NGcVSU- has been uploaded


==== Log checksum 0314C3CE42E9C5F810ED1604D493A874CF027F29A3F3655A4D7A109C528627BE ====

CD2 cue
REM GENRE "Thrash metal"
REM DATE 2012
REM DISCID A00A230D
REM COMMENT "ExactAudioCopy v1.0b3"
PERFORMER "Morbid Saint"
TITLE "Thrashaholic"
FILE "01 - Intro.wav" WAVE
TRACK 01 AUDIO
TITLE "Intro"
PERFORMER "Morbid Saint"
ISRC 000000000000
INDEX 01 00:00:00
FILE "02 - Destruction System.wav" WAVE
TRACK 02 AUDIO
TITLE "Destruction System"
PERFORMER "Morbid Saint"
ISRC 000000000000
INDEX 01 00:00:00
FILE "03 - Darkness Unseen.wav" WAVE
TRACK 03 AUDIO
TITLE "Darkness Unseen"
PERFORMER "Morbid Saint"
ISRC 000000000000
INDEX 01 00:00:00
FILE "04 - Depth Of Sanity.wav" WAVE
TRACK 04 AUDIO
TITLE "Depth Of Sanity"
PERFORMER "Morbid Saint"
ISRC 000000000000
INDEX 01 00:00:00
FILE "05 - Disciples Of Discipline.wav" WAVE
TRACK 05 AUDIO
TITLE "Disciples Of Discipline"
PERFORMER "Morbid Saint"
ISRC 000000000000
INDEX 01 00:00:00
FILE "06 - Spectrum Of Death II.wav" WAVE
TRACK 06 AUDIO
TITLE "Spectrum Of Death II"
PERFORMER "Morbid Saint"
ISRC 000000000000
INDEX 01 00:00:00
FILE "07 - Halls Of Terror.wav" WAVE
TRACK 07 AUDIO
TITLE "Halls Of Terror"
PERFORMER "Morbid Saint"
ISRC 000000000000
INDEX 01 00:00:00
FILE "08 - Living Misery.wav" WAVE
TRACK 08 AUDIO
TITLE "Living Misery"
PERFORMER "Morbid Saint"
ISRC MTKDW1212345
INDEX 01 00:00:00
FILE "09 - Sign Of The Times.wav" WAVE
TRACK 09 AUDIO
TITLE "Sign Of The Times"
PERFORMER "Morbid Saint"
ISRC 000000000000
INDEX 01 00:00:00
FILE "10 - Final Exit.wav" WAVE
TRACK 10 AUDIO
TITLE "Final Exit"
PERFORMER "Morbid Saint"
ISRC 000000000000
INDEX 01 00:00:00
FILE "11 - Dying Day.wav" WAVE
TRACK 11 AUDIO
TITLE "Dying Day"
PERFORMER "Morbid Saint"
ISRC 000000000000
INDEX 01 00:00:00
FILE "12 - Life's Blood.wav" WAVE
TRACK 12 AUDIO
TITLE "Life's Blood"
PERFORMER "Morbid Saint"
ISRC 000000000000
INDEX 01 00:00:00
FILE "13 - Outro.wav" WAVE
TRACK 13 AUDIO
TITLE "Outro"
PERFORMER "Morbid Saint"
ISRC 000000000000
INDEX 01 00:00:00

Image Image

Скачать Morbid Saint - Thrashaholic (2012) (Comp.) flac

_________________
One more beer and Heavy Metal and I'm just fine!
старовер, куле... слово "блин" - до сих пор через Ъ говорю


Top
 Profile E-mail  
 
 
PostPosted: 10 Dec 2012 
\m/ 80 см сала \m/
User avatar
Joined: 12 Mar 2012
Posts: 2589
Age: 25
Name: Nick
Забираю, большое спасибо за публикацию.
Вот только бы еще разобраться насчет происхождения вот этих треков:
Quote:
cd1
10. Death Before Dawn 04:27
11. Thrashaholic 02:35
cd2
11. Dying Day 03:18
12. Life's Blood 04:22

Вроде как одна половина из вышеуказанного есть неизданный ранее материал, вторая - новый, современный. Есть идеи насчет "что-куда"? Или это у меня деза/спать нужно больше?
upd. судя по звучанию, дополнительные треки на первом диске являются свежим материалом (+ название одного из них, Thrashaholic, натолкает на ту же мысль), дополнительные треки на втором - из старого неизданного.

_________________
1990 AUROPHON BRAINSTORM (Germany) - lossless
1994 MAUSOLEUM CLASSIX (Belgium-Germany) - lossless
1998 VA - GRIM HARVEST - Complete Metal Massacre Volumes I-XII


Last edited by Everhard on 10 Dec 2012, edited 1 time in total.

Top
 Profile  
 
 
PostPosted: 10 Dec 2012 
Хиппей (support team)
User avatar
Joined: 30 Jul 2007
Posts: 108957
Lоcаtion: Киев (Kyiv, UA)
Age: 45
Name: Andrey
:thanx:
Quote:
Файл сохранен на ваш «Диск» в папку «Загрузки»


mirror: F-Bit l Narod

_________________


Top
 Profile E-mail  
 
 
PostPosted: 10 Dec 2012 
Персональный статус
User avatar
Joined: 11 May 2011
Posts: 418
Lоcаtion: Omsk
Age: 28
Name: Alexander
Вот спасибо, искал лосика сего альбома! Destruction System собственно прдеставляет наибольший интерес. Даже сравнивая мп3, что были до этого со старыми, гуляющими по сети - звучание лучше, не супер, конечно, но из имеющейся плёнки думаю большего и не вытянуть было.

_________________
Enigma, unholy, ungodly, commander of the regeneration
Insidious and caught, implored by disgrace
Inhumation... The burial of man
Confession... Unify all evil


Top
 Profile E-mail  
 
 
PostPosted: 10 Dec 2012 
А может смените мне статус?..
User avatar
Joined: 17 Jan 2008
Posts: 872
Lоcаtion: Пенза
Age: 41
Name: Денис
Забираю, большое спасибо за публикацию.
Вот только бы еще разобраться насчет происхождения вот этих треков:
Quote:
cd1
10. Death Before Dawn 04:27
11. Thrashaholic 02:35
cd2
11. Dying Day 03:18
12. Life's Blood 04:22

Вроде как одна половина из вышеуказанного есть неизданный ранее материал, вторая - новый, современный. Есть идеи насчет "что-куда"? Или это у меня деза/спать нужно больше?
upd. судя по звучанию, дополнительные треки на первом диске являются свежим материалом (+ название одного из них, Thrashaholic, натолкает на ту же мысль), дополнительные треки на втором - из старого неизданного.


CD 1-Spectrum of Death. Ремастированый альбом 1988-го года,плюс два новых трека записанных в 2011-ом году.Альбом ремастировн с мастер-тейпа группы сделанного в 1988-ом году после финального микса,без какого либо мастеринга от лейбла.

CD 2-Destruction System. Также ремастирован с оригинального мастер тейпа,на протяжение 20 лет считавшемся утеряным.Добит двумя новыми композициями записаными в 2010 году.

DVD - Morbid Saint Live in 1991.


Top
 Profile  
 
 
PostPosted: 11 Dec 2012 
\m/ 80 см сала \m/
User avatar
Joined: 12 Mar 2012
Posts: 2589
Age: 25
Name: Nick
klod77, даже так. Спасибо за информацию.

_________________
1990 AUROPHON BRAINSTORM (Germany) - lossless
1994 MAUSOLEUM CLASSIX (Belgium-Germany) - lossless
1998 VA - GRIM HARVEST - Complete Metal Massacre Volumes I-XII


Top
 Profile  
 
 
PostPosted: 11 Dec 2012 
консэрваторъ
Joined: 11 Aug 2007
Posts: 16333
Lоcаtion: Псков
Age: 44
Name: Сергей
Охренеть :shok: Всё заремастили, да ещё подзаписали новодела немножко... Спасибо :true:

_________________
THRASH 'EM ALL


Top
 Profile E-mail  
 
 
PostPosted: 12 Dec 2012 
Персональный статус
User avatar
Joined: 22 Oct 2011
Posts: 352
Lоcаtion: Moscow
Age: 60
Name: Серёжа
:thanx:


Top
 Profile E-mail  
 
 
PostPosted: 12 Dec 2012 
консэрваторъ
Joined: 11 Aug 2007
Posts: 16333
Lоcаtion: Псков
Age: 44
Name: Сергей
klod77 wrote:
Destruction System. Также ремастирован с оригинального мастер тейпа

Интересно, а почему песни переставлены местами? Каков был порядок изначально? Как здесь на 2-ом диске или как ранее на циркулирующем демо 92 года?..

_________________
THRASH 'EM ALL


Top
 Profile E-mail  
 
 
PostPosted: 12 Dec 2012 
А может смените мне статус?..
User avatar
Joined: 17 Jan 2008
Posts: 872
Lоcаtion: Пенза
Age: 41
Name: Денис
klod77 wrote:
Destruction System. Также ремастирован с оригинального мастер тейпа

Интересно, а почему песни переставлены местами? Каков был порядок изначально? Как здесь на 2-ом диске или как ранее на циркулирующем демо 92 года?..

Видимо правильный порядок предстален на Thrashoholic .Предыдущие переиздание это бутлег от Keltic Records,источник с которого он был сделан неизвестен.Ну а если сильно интересует этот вопрос,то пока музыканты активны,можно задать его им самим,через мордобук или официальный сайт.


Top
 Profile  
 
 
PostPosted: 13 Dec 2012 
консэрваторъ
Joined: 11 Aug 2007
Posts: 16333
Lоcаtion: Псков
Age: 44
Name: Сергей
klod77 wrote:
пока музыканты активны,можно задать его им самим

О!.. чиркнул...

_________________
THRASH 'EM ALL


Top
 Profile E-mail  
 
 
PostPosted: 13 Dec 2012 
\m/ 80 см сала \m/
User avatar
Joined: 12 Mar 2012
Posts: 2589
Age: 25
Name: Nick
О!.. чиркнул...

Ждем-с, интересно же.

_________________
1990 AUROPHON BRAINSTORM (Germany) - lossless
1994 MAUSOLEUM CLASSIX (Belgium-Germany) - lossless
1998 VA - GRIM HARVEST - Complete Metal Massacre Volumes I-XII


Top
 Profile  
 
 
PostPosted: 14 Dec 2012 
Прокъмитолист
User avatar
Joined: 12 Aug 2007
Posts: 6514
Lоcаtion: Санктъ-Петербуркъ
Age: 51
Name: Олекъ
и я утащил. спасибо :thanx:

_________________
прокъметол - это музыко, от которово есть прок (ы)


Top
 Profile  
 
 
PostPosted: 16 Dec 2012 
консэрваторъ
Joined: 11 Aug 2007
Posts: 16333
Lоcаtion: Псков
Age: 44
Name: Сергей
Пришёл ответ от музыкантов:
Quote:
There was no specific order of songs originally, because it was never finished, so as it is on Thrashaholic would probably be the closest order to what we would have wanted, along with the instrumental bit Spectrum of Death-2, which has never before been released until now.. Thanks, Great question!!

Тобишь, порядок песен на втором диске трэшаголика наиболее близок к тому, как парни задумывали их размещать изначально на альбумие :true:

_________________
THRASH 'EM ALL


Top
 Profile E-mail  
 
 
PostPosted: 16 Dec 2012 
ТрэшЭрос
User avatar
Joined: 18 Jul 2011
Posts: 2300
Lоcаtion: Гулькевичи
Age: 43
Name: Александр
32warlord1, :thanx:
Утащить таки сумел как-то... :true: :true: :true:

_________________
Thrash no trash!!!


Top
 Profile E-mail  
 
 
PostPosted: 07 Jan 2013 
Работнечег
User avatar
Joined: 28 Aug 2007
Posts: 5606
Lоcаtion: г. Москва
Age: 29
Name: Дима
Пришёл ответ от музыкантов:
Quote:
There was no specific order of songs originally, because it was never finished, so as it is on Thrashaholic would probably be the closest order to what we would have wanted, along with the instrumental bit Spectrum of Death-2, which has never before been released until now.. Thanks, Great question!!

Тобишь, порядок песен на втором диске трэшаголика наиболее близок к тому, как парни задумывали их размещать изначально на альбумие :true:

Теперь полная ясность, спасибо Серег!


Top
 Profile E-mail  
 
 
PostPosted: 27 Jul 2013 
Хиппей (support team)
User avatar
Joined: 30 Jul 2007
Posts: 108957
Lоcаtion: Киев (Kyiv, UA)
Age: 45
Name: Andrey
Пришёл ответ от музыкантов:
Quote:
There was no specific order of songs originally, because it was never finished, so as it is on Thrashaholic would probably be the closest order to what we would have wanted, along with the instrumental bit Spectrum of Death-2, which has never before been released until now.. Thanks, Great question!!

Тобишь, порядок песен на втором диске трэшаголика наиболее близок к тому, как парни задумывали их размещать изначально на альбумие :true:

:true: :thanx:

_________________


Top
 Profile E-mail  
 
 
PostPosted: 19 Nov 2015 
Зарегился вот...
Joined: 06 Apr 2013
Posts: 1
Name: falchenr
Link is dead. Any chance of a reupload, preferably also with a rip of the DVD? Cheers!


Top
 Profile E-mail  
 
 
PostPosted: 19 Nov 2015 
консэрваторъ
Joined: 11 Aug 2007
Posts: 16333
Lоcаtion: Псков
Age: 44
Name: Сергей
falchenr wrote:
Link is dead

viewtopic.php?p=169569#p169569 вторая ссылка...

_________________
THRASH 'EM ALL


Top
 Profile E-mail  
 
 
PostPosted: 19 Nov 2015 
Рарник и трушник
User avatar
Joined: 25 Dec 2009
Posts: 8484
Lоcаtion: Москва
Age: 53
Name: Виталий
Сенькс, тоже стяну послушаю. :thanx:


Top
 Profile  
 
Display posts from previous:  Sort by  
Post new topic Reply to topic  [ 50 posts ]  Go to page 1, 2, 3  Next

All times are UTC + 3 hours


Who is online

Users browsing this forum: No registered users and 4 guests


You cannot post new topics in this forum
You cannot reply to topics in this forum
You cannot edit your posts in this forum
You cannot delete your posts in this forum
You cannot post attachments in this forum

Search for:
Яндекс.Метрика
Powered by phpBB © 2000, 2002, 2005, 2007 phpBB Group