\m/ 80's metal \m/

Информационно-аналитический форум "80 см пыли" (In Search We Trust) "У нас никто никуда не спешит"
Me For You - http://me-4u.com
It is currently 23 Sep 2018

All times are UTC + 3 hours

Spoiler
Chat - temporary registration for foreign users (please leave your application here)







Post new topic Reply to topic  [ 4 posts ] 
Author Message
 
PostPosted: 10 Nov 2012 
Работнечег
User avatar
Joined: 28 Aug 2007
Posts: 5409
Lоcаtion: г. Москва
Age: 29
Name: Дима
Image

Year: 1994
Label: Pro-Hunter Records
Country: ?
Style: Hard Rock
Format: Flac+Cue+Log+Covers/MP3@320+Covers
Size: 320 Mb/ 126 Mb

Line-Up:
???

Tracklist:
1. Beautiful Mask 06:01
2. Melting Pot 04:39
3. Another Life 04:20
4. Ancient One 04:50
5. Breathe On 04:27
6. Gold 05:10
7. Going Blind 03:47
8. Turtle 05:57
9. The Pit 04:00
10. Fatherly Love 04:50
11. The Glow 06:19

LOG
Exact Audio Copy V0.99 prebeta 5 from 4. May 2009

EAC extraction logfile from 3. November 2012, 16:06

Man Alive / Broke

Used drive : PIONEER DVD-RW DVR-116D Adapter: 0 ID: 0

Read mode : Secure
Utilize accurate stream : Yes
Defeat audio cache : Yes
Make use of C2 pointers : No

Read offset correction : 96
Overread into Lead-In and Lead-Out : No
Fill up missing offset samples with silence : Yes
Delete leading and trailing silent blocks : No
Null samples used in CRC calculations : Yes
Used interface : Native Win32 interface for Win NT & 2000

Used output format : User Defined Encoder
Selected bitrate : 32 kBit/s
Quality : High
Add ID3 tag : No
Command line compressor : C:\Program Files\Exact Audio Copy\Flac\flac.exe
Additional command line options : -6 -V %s


TOC of the extracted CD

Track | Start | Length | Start sector | End sector
---------------------------------------------------------
1 | 0:00.00 | 6:00.62 | 0 | 27061
2 | 6:00.62 | 4:39.13 | 27062 | 47999
3 | 10:40.00 | 4:19.65 | 48000 | 67489
4 | 14:59.65 | 4:49.62 | 67490 | 89226
5 | 19:49.52 | 4:26.50 | 89227 | 109226
6 | 24:16.27 | 5:09.70 | 109227 | 132471
7 | 29:26.22 | 3:46.40 | 132472 | 149461
8 | 33:12.62 | 5:56.58 | 149462 | 176219
9 | 39:09.45 | 4:00.27 | 176220 | 194246
10 | 43:09.72 | 4:49.70 | 194247 | 215991
11 | 47:59.67 | 6:18.55 | 215992 | 244396


Range status and errors

Selected range

Filename D:\Музыка\Lossless\Man Alive - Broke (1994) flac\Man Alive - Broke.wav

Peak level 83.8 %
Range quality 100.0 %
Copy CRC CF5B15A6
Copy OK

No errors occurred


AccurateRip summary

Track 1 not present in database
Track 2 not present in database
Track 3 not present in database
Track 4 not present in database
Track 5 not present in database
Track 6 not present in database
Track 7 not present in database
Track 8 not present in database
Track 9 not present in database
Track 10 not present in database
Track 11 not present in database

None of the tracks are present in the AccurateRip database

End of status report

CUE
REM GENRE "Hard Rock"
REM DATE 1994
REM DISCID 9D0CBA0B
REM COMMENT "ExactAudioCopy v0.99pb5"
PERFORMER "Man Alive"
TITLE "Broke"
FILE "Man Alive - Broke.flac" WAVE
TRACK 01 AUDIO
TITLE "Beautiful Mask"
PERFORMER "Man Alive"
INDEX 01 00:00:00
TRACK 02 AUDIO
TITLE "Melting Pot"
PERFORMER "Man Alive"
INDEX 00 06:00:37
INDEX 01 06:00:62
TRACK 03 AUDIO
TITLE "Another Life"
PERFORMER "Man Alive"
INDEX 01 10:40:00
TRACK 04 AUDIO
TITLE "Ancient One"
PERFORMER "Man Alive"
INDEX 01 14:59:65
TRACK 05 AUDIO
TITLE "Breathe On"
PERFORMER "Man Alive"
INDEX 00 19:49:05
INDEX 01 19:49:52
TRACK 06 AUDIO
TITLE "Gold"
PERFORMER "Man Alive"
INDEX 01 24:16:27
TRACK 07 AUDIO
TITLE "Going Blind"
PERFORMER "Man Alive"
INDEX 01 29:26:22
TRACK 08 AUDIO
TITLE "Turtle"
PERFORMER "Man Alive"
INDEX 01 33:12:62
TRACK 09 AUDIO
TITLE "The Pit"
PERFORMER "Man Alive"
INDEX 00 39:09:15
INDEX 01 39:09:45
TRACK 10 AUDIO
TITLE "Fatherly Love"
PERFORMER "Man Alive"
INDEX 01 43:09:72
TRACK 11 AUDIO
TITLE "The Glow"
PERFORMER "Man Alive"
INDEX 01 47:59:67


Flac
MP3@320

Вообщем-то неплохой хард для 1994 года) Не отлично, но и не хрень, пару раз послушать вполне можно) За раритет спасибо Саше spryt777!
P.S. Состав и страна происхождения в поиске, отредактирую попозже!Сходу инфы не нашел :(


Top
 Profile E-mail  
 
 
PostPosted: 07 Aug 2013 
Хиппей (support team)
User avatar
Joined: 30 Jul 2007
Posts: 106472
Lоcаtion: Киев (Kyiv, UA)
Age: 45
Name: Andrey
:thanx:

mirror: F-Bit l Narod

_________________


Top
 Profile E-mail  
 
 
PostPosted: 07 Aug 2013 
Доктор энтомологии
User avatar
Joined: 22 Jan 2009
Posts: 9329
Lоcаtion: Даугавпилс
Age: 43
Name: Алексей
послухаю эмпетрятку :thanx:


Top
 Profile  
 
 
PostPosted: 09 Aug 2013 
Я набрал 1000 сообщений!
Joined: 24 Oct 2009
Posts: 2033
Lоcаtion: Оренбург
Age: 55
Name: Юра
:meloman: :true:

_________________
:dash: I am happy!


Top
 Profile E-mail  
 
Display posts from previous:  Sort by  
Post new topic Reply to topic  [ 4 posts ] 

All times are UTC + 3 hours


Who is online

Users browsing this forum: No registered users and 1 guest


You cannot post new topics in this forum
You cannot reply to topics in this forum
You cannot edit your posts in this forum
You cannot delete your posts in this forum
You cannot post attachments in this forum

Search for:
Яндекс.Метрика
Powered by phpBB © 2000, 2002, 2005, 2007 phpBB Group