\m/ 80's metal \m/

Информационно-аналитический форум "80 см пыли" (In Search We Trust) "У нас никто никуда не спешит"
Me For You - http://me-4u.com
It is currently 24 Sep 2018

All times are UTC + 3 hours

Spoiler
Chat - temporary registration for foreign users (please leave your application here)







Post new topic Reply to topic  [ 1 post ] 
Author Message
 
PostPosted: 05 Aug 2012 
Хиппей (support team)
User avatar
Joined: 30 Jul 2007
Posts: 106542
Lоcаtion: Киев (Kyiv, UA)
Age: 45
Name: Andrey
Marshall Law - 1999 - Warning From History (Japan) [flac]

Image

Genre: Power Heavy Metal
Location: UK
Format: flac + cue + log + scans
Size: 474 Mb


Line-up:

Andy Pyke - vocals
Dave Martin - guitars
Roger Davis - bass, drum programming
Andy Southwell - guitars

Image

    1. Foregathering - 02:22
    2. Victory at Last - 04:54
    3. Locked and Loaded - 05:38
    4. Remembered Forever - 06:00
    5. Harbinger - 05:48
    6. Blood on Blood - 04:37
    7. Crucified - 03:36
    8. March of History - 06:59
    9. Pray for Deliverance - 05:15
    10. God King - 06:09
    11. Retreat - 06:43
    12. Searching for Paradise (demo version) - 04:42
    13. Power Game (demo version) - 04:32

    TPT: 67:13

А вот этот альбом чуть получше предыдущего. То есть, не так - он мне больше понравился.
Жаль, среднетемповой полностью. Но зато более разнооборазный и мелодичный :dance:

6/10

Thanx to spiralarch from MMT :thanx:

MultiUp l Narod

log
Exact Audio Copy V1.0 beta 1 from 15. November 2010

EAC extraction logfile from 30. May 2012, 19:27

Marshall Law / Warning From History (Japan)

Used drive : Optiarc DVD RW AD-7240S Adapter: 2 ID: 0

Read mode : Secure
Utilize accurate stream : Yes
Defeat audio cache : Yes
Make use of C2 pointers : No

Read offset correction : 48
Overread into Lead-In and Lead-Out : No
Fill up missing offset samples with silence : Yes
Delete leading and trailing silent blocks : No
Null samples used in CRC calculations : Yes
Used interface : Native Win32 interface for Win NT & 2000

Used output format : Internal WAV Routines
Sample format : 44.100 Hz; 16 Bit; Stereo


TOC of the extracted CD

Track | Start | Length | Start sector | End sector
---------------------------------------------------------
1 | 0:00.00 | 2:22.67 | 0 | 10716
2 | 2:22.67 | 4:54.18 | 10717 | 32784
3 | 7:17.10 | 5:28.32 | 32785 | 57416
4 | 12:45.42 | 6:00.25 | 57417 | 84441
5 | 18:45.67 | 5:48.53 | 84442 | 110594
6 | 24:34.45 | 4:37.30 | 110595 | 131399
7 | 29:12.00 | 3:36.57 | 131400 | 147656
8 | 32:48.57 | 6:59.60 | 147657 | 179141
9 | 39:48.42 | 5:15.40 | 179142 | 202806
10 | 45:04.07 | 6:09.50 | 202807 | 230531
11 | 51:13.57 | 6:43.58 | 230532 | 260814
12 | 57:57.40 | 4:42.67 | 260815 | 282031
13 | 62:40.32 | 4:32.50 | 282032 | 302481


Range status and errors

Selected range

Filename D:\spiralarch\Marshall Law - Warning From History (Japan).wav

Peak level 98.9 %
Extraction speed 0.3 X
Range quality 100.0 %
Copy CRC 5C92E4AF
Copy OK

No errors occurred


AccurateRip summary

Track 1 not present in database
Track 2 not present in database
Track 3 not present in database
Track 4 not present in database
Track 5 not present in database
Track 6 not present in database
Track 7 not present in database
Track 8 not present in database
Track 9 not present in database
Track 10 not present in database
Track 11 not present in database
Track 12 not present in database
Track 13 not present in database

None of the tracks are present in the AccurateRip database

End of status report

==== Log checksum F0F1653CDD8FBFFA00D857B7CF417AB65FCD6D5E67F6EAAF493241165F82D6B8 ====

cue
REM GENRE Metal
REM DATE 1999
REM DISCID C30FC10D
REM COMMENT "ExactAudioCopy v1.0b1"
PERFORMER "Marshall Law"
TITLE "Warning From History (Japan)"
FILE "Marshall Law - Warning From History (Japan).flac" WAVE
TRACK 01 AUDIO
TITLE "Foregathering"
PERFORMER "Marshall Law"
INDEX 01 00:00:00
TRACK 02 AUDIO
TITLE "Victory At Last"
PERFORMER "Marshall Law"
INDEX 01 02:22:67
TRACK 03 AUDIO
TITLE "Locked And Loaded"
PERFORMER "Marshall Law"
INDEX 01 07:17:10
TRACK 04 AUDIO
TITLE "Remembered Forever"
PERFORMER "Marshall Law"
INDEX 01 12:45:42
TRACK 05 AUDIO
TITLE "Harbinger"
PERFORMER "Marshall Law"
INDEX 01 18:45:67
TRACK 06 AUDIO
TITLE "Blood On Blood"
PERFORMER "Marshall Law"
INDEX 01 24:34:45
TRACK 07 AUDIO
TITLE "Crucified"
PERFORMER "Marshall Law"
INDEX 01 29:12:00
TRACK 08 AUDIO
TITLE "March Of History"
PERFORMER "Marshall Law"
INDEX 01 32:48:57
TRACK 09 AUDIO
TITLE "Pray For Deliverance"
PERFORMER "Marshall Law"
INDEX 01 39:48:42
TRACK 10 AUDIO
TITLE "God King"
PERFORMER "Marshall Law"
INDEX 01 45:04:07
TRACK 11 AUDIO
TITLE "Retreat"
PERFORMER "Marshall Law"
INDEX 01 51:13:57
TRACK 12 AUDIO
TITLE "Searching For Paradise (bonus)"
PERFORMER "Marshall Law"
INDEX 01 57:57:40
TRACK 13 AUDIO
TITLE "Powergame (bonus)"
PERFORMER "Marshall Law"
INDEX 01 62:40:32

spectrum
Image

_________________


Top
 Profile E-mail  
 
Display posts from previous:  Sort by  
Post new topic Reply to topic  [ 1 post ] 

All times are UTC + 3 hours


Who is online

Users browsing this forum: No registered users and 2 guests


You cannot post new topics in this forum
You cannot reply to topics in this forum
You cannot edit your posts in this forum
You cannot delete your posts in this forum
You cannot post attachments in this forum

Search for:
Яндекс.Метрика
Powered by phpBB © 2000, 2002, 2005, 2007 phpBB Group