\m/ 80's metal \m/

Информационно-аналитический форум "80 см пыли" (In Search We Trust) "У нас никто никуда не спешит"
Me For You - http://me-4u.com
It is currently 23 Sep 2018

All times are UTC + 3 hours

Spoiler
Chat - temporary registration for foreign users (please leave your application here)







Post new topic Reply to topic  [ 30 posts ]  Go to page Previous  1, 2
Author Message
 
PostPosted: 03 Aug 2012 
Хиппей (support team)
User avatar
Joined: 30 Jul 2007
Posts: 106469
Lоcаtion: Киев (Kyiv, UA)
Age: 45
Name: Andrey
Marshall Law - 1997 - Metal Detector (Japan) [flac]

Image

Genre: Power Heavy Metal
Location: UK
Format: flac + cue + log + scans
Size: 357 Mb


Line-up:

Andy Pyke - vocals
Dave Martin - guitars
Roger Davis - bass, drum programming
Andy Southwell - guitars

Image


    1. Osmium (instrumental) - 01:33
    2. Twisted This - 03:55
    3. War 03:31
    4. Seek and You Shall Find - 03:34
    5. Swarm - 03:48
    6. Feed the Need - 03:31
    7. Devices - 04:10
    8. Addicted to the Pain - 04:11
    9. Empowerment - 04:15
    10. The Sands of Time - 03:03
    11. Meganoid - 03:23
    12. The Seeds of Change - 04:03
    13. Iridium - 01:44
    14. Storming to Power (bonus) - 04:20

    TPT: 49:04

Мдя... после более чем успешного альбома получаем такое вот непонятное техническо-навороченное чудо :esel:
11 трэков исполнены в почти идентичной манере. Вплоть до риффов - их, по моим скромным подсчётам использовано всего... 3 штуки :shok: И все, что уже не смешно, заимствованы из Пристовского "Пэйнкиллера" (специально для Олега - переслушай в который раз песню "Twisted This", это ли не умягченная версия "Пня"?), только намного примитивнее и вырубано топором, говоря понятными словами.
В общем, технические изыски убили в группе творчество. Ну, не убили, а временно приглушили :fingal:
Есть ли вообще мелодии на альбоме? Ага, аж две штуки - на полу-балладе "Эмповермент" и следующей за ней трэков в духе кхм... Линкин Парка :crazy: и прочей модной в то время чухни.
Весь альбом построен на "трех примитивных слонах" - куплет почти речитативный с хорошим вокалом, но очень плотной ритм-секцией (иногда доходит до трэша) и очень короткий припев, и так три раза и во всех 11 песнях.
13-й трэк это бонус с раннего релиза, поэтому слушая его, охреневаешь, а ту ли группу я сейчас слушаю ваще? :starz:
К сожалению, оценка:

4/10

ps. Альбом мною был прослушал 7-10 раз :cry:

Спасибо Олегу spiralarch с сайта MMT за лосика! :thanx:

MultiUp l Narod

log
Exact Audio Copy V1.0 beta 1 from 15. November 2010

EAC extraction logfile from 30. May 2012, 18:47

Marshall Law / Metal Detector (Japan)

Used drive : Optiarc DVD RW AD-7240S Adapter: 2 ID: 0

Read mode : Secure
Utilize accurate stream : Yes
Defeat audio cache : Yes
Make use of C2 pointers : No

Read offset correction : 48
Overread into Lead-In and Lead-Out : No
Fill up missing offset samples with silence : Yes
Delete leading and trailing silent blocks : No
Null samples used in CRC calculations : Yes
Used interface : Native Win32 interface for Win NT & 2000

Used output format : Internal WAV Routines
Sample format : 44.100 Hz; 16 Bit; Stereo


TOC of the extracted CD

Track | Start | Length | Start sector | End sector
---------------------------------------------------------
1 | 0:00.00 | 1:32.22 | 0 | 6921
2 | 1:32.22 | 3:55.40 | 6922 | 24586
3 | 5:27.62 | 3:31.25 | 24587 | 40436
4 | 8:59.12 | 3:34.28 | 40437 | 56514
5 | 12:33.40 | 3:48.62 | 56515 | 73676
6 | 16:22.27 | 3:31.73 | 73677 | 89574
7 | 19:54.25 | 4:10.50 | 89575 | 108374
8 | 24:05.00 | 4:11.35 | 108375 | 127234
9 | 28:16.35 | 4:15.40 | 127235 | 146399
10 | 32:32.00 | 3:03.47 | 146400 | 160171
11 | 35:35.47 | 3:23.03 | 160172 | 175399
12 | 38:58.50 | 4:03.62 | 175400 | 193686
13 | 43:02.37 | 1:42.23 | 193687 | 201359
14 | 44:44.60 | 4:20.02 | 201360 | 220861


Range status and errors

Selected range

Filename D:\spiralarch\Marshall Law - Metal Detector (Japan).wav

Peak level 97.2 %
Extraction speed 0.3 X
Range quality 100.0 %
Copy CRC D262C30E
Copy OK

No errors occurred


AccurateRip summary

Track 1 accurately ripped (confidence 1) [1D0FE805]
Track 2 accurately ripped (confidence 1) [08C7EA97]
Track 3 accurately ripped (confidence 1) [C4FCA7FF]
Track 4 accurately ripped (confidence 1) [EDE93799]
Track 5 accurately ripped (confidence 1) [7A7125EA]
Track 6 accurately ripped (confidence 1) [6D8BBACB]
Track 7 accurately ripped (confidence 1) [F03EF502]
Track 8 accurately ripped (confidence 1) [233D222B]
Track 9 accurately ripped (confidence 1) [52099A81]
Track 10 accurately ripped (confidence 1) [A1F1019A]
Track 11 accurately ripped (confidence 1) [84F4511D]
Track 12 accurately ripped (confidence 1) [BBDADC9D]
Track 13 accurately ripped (confidence 1) [2A6F00A4]
Track 14 accurately ripped (confidence 1) [5A058C3B]

All tracks accurately ripped

End of status report

==== Log checksum 2651D3B13EF8E64A5D25A5BB90AF4534302665150A5C5CA98BA3543881B1A32F ====

cue
REM GENRE Metal
REM DATE 1997
REM DISCID D80B800E
REM COMMENT "ExactAudioCopy v1.0b1"
PERFORMER "Marshall Law"
TITLE "Metal Detector (Japan)"
FILE "Marshall Law - Metal Detector (Japan).flac" WAVE
TRACK 01 AUDIO
TITLE "Osmium"
PERFORMER "Marshall Law"
INDEX 01 00:00:00
TRACK 02 AUDIO
TITLE "Twisted This"
PERFORMER "Marshall Law"
INDEX 01 01:32:22
TRACK 03 AUDIO
TITLE "War"
PERFORMER "Marshall Law"
INDEX 01 05:27:62
TRACK 04 AUDIO
TITLE "Seek And You Shall Find"
PERFORMER "Marshall Law"
INDEX 01 08:59:12
TRACK 05 AUDIO
TITLE "Swarm"
PERFORMER "Marshall Law"
INDEX 01 12:33:40
TRACK 06 AUDIO
TITLE "Feed The Need"
PERFORMER "Marshall Law"
INDEX 01 16:22:27
TRACK 07 AUDIO
TITLE "Devices"
PERFORMER "Marshall Law"
INDEX 01 19:54:25
TRACK 08 AUDIO
TITLE "Addicted To The Pain"
PERFORMER "Marshall Law"
INDEX 01 24:05:00
TRACK 09 AUDIO
TITLE "Empowerment"
PERFORMER "Marshall Law"
INDEX 01 28:16:35
TRACK 10 AUDIO
TITLE "The Sands Of Time"
PERFORMER "Marshall Law"
INDEX 01 32:32:00
TRACK 11 AUDIO
TITLE "Meganoid"
PERFORMER "Marshall Law"
INDEX 01 35:35:47
TRACK 12 AUDIO
TITLE "The Seeds Of Change"
PERFORMER "Marshall Law"
INDEX 01 38:58:50
TRACK 13 AUDIO
TITLE "Iridium"
PERFORMER "Marshall Law"
INDEX 01 43:02:37
TRACK 14 AUDIO
TITLE "Storming To Power (bonus)"
PERFORMER "Marshall Law"
INDEX 01 44:44:60

spectrum
Image


Last edited by Scatterbrain on 06 Aug 2012, edited 1 time in total.
Причина редактирования сообщения: указана чуть ниже


Top
 Profile E-mail  
 
 
PostPosted: 06 Aug 2012 
Хиппей (support team)
User avatar
Joined: 30 Jul 2007
Posts: 106469
Lоcаtion: Киев (Kyiv, UA)
Age: 45
Name: Andrey
spiralarch wrote:
если обратиться к МА, то получается такая же картина, какую обрисовал я

Scatterbrain wrote:
Да, там тоже (пока) некоторым как раз больше всех альбомов понравился релиз от 99 года (сразу после дебютника)

Так и я о том же. Но посмотри сам, сколько там ревьюшек всего.

Делаем опрос по этой группе у нас?
Только я вот не удивлюсь, что всю её дискографию многие, как и я, пока не слушали. Или вообще только группу знают по дебютнику.

_________________


Top
 Profile E-mail  
 
 
PostPosted: 06 Aug 2012 
Прокъмитолист
User avatar
Joined: 12 Aug 2007
Posts: 6472
Lоcаtion: Санктъ-Петербуркъ
Age: 50
Name: Олекъ
голосовалку оставляю на твое усмотрение. эту команду я услышал не только что. я этих парней давно и хорошо знаю, и мнение у меня давно сложилось (а тем более я буквально недавно переслушал всю их дискографию, когда релизил) - и никакая голосовалка (а равно и никакие рецензии) его не изменят :pardon:

_________________
прокъметол - это музыко, от которово есть прок (ы)


Top
 Profile  
 
 
PostPosted: 06 Aug 2012 
Хиппей (support team)
User avatar
Joined: 30 Jul 2007
Posts: 106469
Lоcаtion: Киев (Kyiv, UA)
Age: 45
Name: Andrey
Да это понятно. Как и моё мнение кардинально не изменится.
Группа ни разу не устарела за эти годы.

Но мнение остальных любопытно узнать. Явно завтра в этом же топике и пихну голосовалку.

_________________


Top
 Profile E-mail  
 
 
PostPosted: 06 Aug 2012 
спирт 100%
User avatar
Joined: 22 Sep 2008
Posts: 4281
Age: 47
Name: Саня
Заберу лосика , Спасибо! :thanx:


Top
 Profile  
 
 
PostPosted: 12 Sep 2012 
Я набрал 1000 сообщений!
Joined: 24 Oct 2009
Posts: 2033
Lоcаtion: Оренбург
Age: 55
Name: Юра
А дебютник будет?

_________________
:dash: I am happy!


Top
 Profile E-mail  
 
 
PostPosted: 12 Sep 2012 
Прокъмитолист
User avatar
Joined: 12 Aug 2007
Posts: 6472
Lоcаtion: Санктъ-Петербуркъ
Age: 50
Name: Олекъ
Юр, а ко мне в подпись заглянуть не пробовал? а вообще уже и Оксаны на форуме мой рип есть, и по-моему на рутрекере тоже.

_________________
прокъметол - это музыко, от которово есть прок (ы)


Top
 Profile  
 
 
PostPosted: 12 Sep 2012 
Я набрал 1000 сообщений!
Joined: 24 Oct 2009
Posts: 2033
Lоcаtion: Оренбург
Age: 55
Name: Юра
Юр, а ко мне в подпись заглянуть не пробовал? а вообще уже и Оксаны на форуме мой рип есть, и по-моему на рутрекере тоже.

Ой... Олеж извини, а я и не знал что там целый склад клад... :pardon:
Это я щас там нарою... :ura:

_________________
:dash: I am happy!


Top
 Profile E-mail  
 
 
PostPosted: 13 Sep 2012 
Хиппей (support team)
User avatar
Joined: 30 Jul 2007
Posts: 106469
Lоcаtion: Киев (Kyiv, UA)
Age: 45
Name: Andrey
Ой, я ж вроде всё скачивал :thanx: , толко не успеваю перезалить... :oops:

_________________


Top
 Profile E-mail  
 
 
PostPosted: 13 Sep 2012 
Power Metal Maniac
User avatar
Joined: 09 Aug 2008
Posts: 6301
Lоcаtion: Москва
Age: 40
Name: Егор
Вроде вообще не было у меня этого диска. А пэйнкиллеровщину заберу обязательно!
:thanx:

_________________
Long Live Metal!


Top
 Profile  
 
 
PostPosted: 21 Sep 2012 
Power Metal Maniac
User avatar
Joined: 09 Aug 2008
Posts: 6301
Lоcаtion: Москва
Age: 40
Name: Егор
Во многом соглашусь с Андреем. Разве что именно клона Пэйнкиллера я и не услышал, потонула большая часть песен в грувастой среднетемповости.
Плохо помню другие релизы группы, но этот явно не из самых удачных.



Третий номерной альбом британской группы. Девяностые годы на многих наложили свой отпечаток модерновости и грувастости. Не избежал этого пагубного влияния и данный коллектив. Несмотря на то, что во многом музыка на альбоме отталкивается от Painkiller, тут много среднетемповых грувовых риффов и даже неких отсылок к ню-металу (Feed the Need). В принципе, как раз Marshall Law музыкально оказались на середине пути самих Пристов от Пня к Jugulator, но здесь нет той брутальности, злобы и агрессии, что у Judas Priest в 1997. Но звучание все равно тяжелое и перегруженное.
Лучшими, на мой взгляд, вышли именно скоростные пропэйнкиллеровские вещи, жаль, что таковых на альбоме всего 2 Twisted This и The Sands of Time. Остальное - как раз грувастый Heavy Metal 90-х, в чем-то также схожий и с творчеством Vicious Rumors тех лет.
Вокалист верещит и использует высокий скриминг, во всем пытаясь подражать Робу нашему Хэлфорду, но выходит как раз в духе Риппера, причем очень даже неплохо выходит. Местами звучат толковые соляки а-ля Типтон-Даунинг. Но общее настроение все-таки изрядно смазывается однотипными и маломелодичными риффами, использующимися в каждой вещи. Нет, пара таких вещей пришлась бы к месту, но не весь альбом в целом.
Совершенно по иному звучит бонус, видимо взятый из старых запасов. Вот он как раз представляет собой добротный Heavy/Speed конца 80-х, более мелодичный и искренний, чем песни данный релиза, записанные в угоду моде.
В общем, не самый лучший релиз, но скоростные вещи и бонус скрашивают впечатление. 4.2/6.0.
21.09.2012.

_________________
Long Live Metal!


Top
 Profile  
 
Display posts from previous:  Sort by  
Post new topic Reply to topic  [ 30 posts ]  Go to page Previous  1, 2

All times are UTC + 3 hours


Who is online

Users browsing this forum: No registered users and 1 guest


You cannot post new topics in this forum
You cannot reply to topics in this forum
You cannot edit your posts in this forum
You cannot delete your posts in this forum
You cannot post attachments in this forum

Search for:
Яндекс.Метрика
Powered by phpBB © 2000, 2002, 2005, 2007 phpBB Group