\m/ 80's metal \m/

Информационно-аналитический форум "80 см пыли" (In Search We Trust) "У нас никто никуда не спешит"
Me For You - http://me-4u.com
It is currently 21 Nov 2018

All times are UTC + 3 hours

Spoiler
Chat - temporary registration for foreign users (please leave your application here)







Post new topic Reply to topic  [ 8 posts ] 
Author Message
 
PostPosted: 30 Jul 2012 
Хиппей (support team)
User avatar
Joined: 30 Jul 2007
Posts: 108243
Lоcаtion: Киев (Kyiv, UA)
Age: 45
Name: Andrey
Marshall Law - 1993 - Power Game (Japan) [flac]

Image

Genre: Heavy/Power
Location: UK
Format: flac + cue + log + scans
Size: 289 Mb


Line-up:

Andy Pyke - vocals
Dave Martin - guitars
Roger Davis - bass
Lee Morris - drums
Andy Southwell - guitars

Image

    1. Chain of Youth - 04:18
    2. Another Generation - 03:25
    3. Searching for Paradise - 04:49
    4. Naked Aggression - 04:30
    5. No Justice - 05:02
    6. Power Game - 04:35
    7. Edge of the World - 04:44
    8. Psychodrama - 04:15
    9. Dead Zone - 03:22
    10. Leviathan - 04:15

    TPT: 43:15

Благодарим за рип Олега spiralarch :thanx:

Отменный альбом, сопсна :meloman:
Помесь мелодичного хэви, пауэра и хард-рока. Вокал, естественно, очень смахивает на Хэлфорда. Но так же присутствует и свои оригинальные фишки в голсе. так и особенно в музыке.

9/10

MultiUp l Narod

log
Exact Audio Copy V1.0 beta 1 from 15. November 2010

EAC extraction logfile from 18. May 2012, 14:42

Marshall Law / Power Game (Japan)

Used drive : Optiarc DVD RW AD-7240S Adapter: 2 ID: 0

Read mode : Secure
Utilize accurate stream : Yes
Defeat audio cache : Yes
Make use of C2 pointers : No

Read offset correction : 48
Overread into Lead-In and Lead-Out : No
Fill up missing offset samples with silence : Yes
Delete leading and trailing silent blocks : No
Null samples used in CRC calculations : Yes
Used interface : Native Win32 interface for Win NT & 2000

Used output format : Internal WAV Routines
Sample format : 44.100 Hz; 16 Bit; Stereo


TOC of the extracted CD

Track | Start | Length | Start sector | End sector
---------------------------------------------------------
1 | 0:00.37 | 4:20.08 | 37 | 19544
2 | 4:20.45 | 3:28.25 | 19545 | 35169
3 | 7:48.70 | 4:51.17 | 35170 | 57011
4 | 12:40.12 | 4:31.10 | 57012 | 77346
5 | 17:11.22 | 5:02.40 | 77347 | 100036
6 | 22:13.62 | 4:36.20 | 100037 | 120756
7 | 26:50.07 | 4:44.03 | 120757 | 142059
8 | 31:34.10 | 4:15.02 | 142060 | 161186
9 | 35:49.12 | 3:22.68 | 161187 | 176404
10 | 39:12.05 | 4:17.62 | 176405 | 195741


Range status and errors

Selected range

Filename D:\spiralarch\Marshall Law - Power Game (Japan).wav

Peak level 100.0 %
Extraction speed 0.3 X
Range quality 100.0 %
Copy CRC 208F78C9
Copy OK

No errors occurred


AccurateRip summary

Track 1 not present in database
Track 2 not present in database
Track 3 not present in database
Track 4 not present in database
Track 5 not present in database
Track 6 not present in database
Track 7 not present in database
Track 8 not present in database
Track 9 not present in database
Track 10 not present in database

None of the tracks are present in the AccurateRip database

End of status report

==== Log checksum 4669B26C06243868CA31A107D6F51A5A67E2CF4EC1B3838512076738CC177239 ====

cue
REM GENRE Metal
REM DATE 1993
REM DISCID 720A310A
REM COMMENT "ExactAudioCopy v1.0b1"
PERFORMER "Marshall Law"
TITLE "Power Game (Japan)"
FILE "Marshall Law - Power Game (Japan).flac" WAVE
TRACK 01 AUDIO
TITLE "Chain Of Youth"
PERFORMER "Marshall Law"
INDEX 00 00:00:00
INDEX 01 00:00:37
TRACK 02 AUDIO
TITLE "Another Generation"
PERFORMER "Marshall Law"
INDEX 00 04:19:08
INDEX 01 04:20:45
TRACK 03 AUDIO
TITLE "Searching For Paradise"
PERFORMER "Marshall Law"
INDEX 00 07:46:71
INDEX 01 07:48:70
TRACK 04 AUDIO
TITLE "Naked Aggression"
PERFORMER "Marshall Law"
INDEX 00 12:37:51
INDEX 01 12:40:12
TRACK 05 AUDIO
TITLE "No Justice"
PERFORMER "Marshall Law"
INDEX 01 17:11:22
TRACK 06 AUDIO
TITLE "Power Game"
PERFORMER "Marshall Law"
INDEX 00 22:11:63
INDEX 01 22:13:62
TRACK 07 AUDIO
TITLE "Edge Of The World"
PERFORMER "Marshall Law"
INDEX 01 26:50:07
TRACK 08 AUDIO
TITLE "Psychodrama"
PERFORMER "Marshall Law"
INDEX 00 31:33:48
INDEX 01 31:34:10
TRACK 09 AUDIO
TITLE "Dead Zone"
PERFORMER "Marshall Law"
INDEX 00 35:48:51
INDEX 01 35:49:12
TRACK 10 AUDIO
TITLE "Leviathan"
PERFORMER "Marshall Law"
INDEX 01 39:12:05

spectrum
Image


Top
 Profile E-mail  
 
 
PostPosted: 30 Jul 2012 
Прокъмитолист
User avatar
Joined: 12 Aug 2007
Posts: 6504
Lоcаtion: Санктъ-Петербуркъ
Age: 51
Name: Олекъ
Scatterbrain wrote:
Отменный альбом

тогда срочно качай следующие два (97 и 99) :true:

з.ы. с Хэлфордом Пайка роднит лишь место прописки, вымой уши :oops:

_________________
прокъметол - это музыко, от которово есть прок (ы)


Top
 Profile  
 
 
PostPosted: 31 Jul 2012 
Хиппей (support team)
User avatar
Joined: 30 Jul 2007
Posts: 108243
Lоcаtion: Киев (Kyiv, UA)
Age: 45
Name: Andrey
spiralarch wrote:
вымой уши

Завтра попробую нарезку с альбома сделать :nose:

_________________


Top
 Profile E-mail  
 
 
PostPosted: 31 Jul 2012 
Прокъмитолист
User avatar
Joined: 12 Aug 2007
Posts: 6504
Lоcаtion: Санктъ-Петербуркъ
Age: 51
Name: Олекъ
и альбом 93-го года :blum:

_________________
прокъметол - это музыко, от которово есть прок (ы)


Top
 Profile  
 
 
PostPosted: 31 Jul 2012 
Хиппей (support team)
User avatar
Joined: 30 Jul 2007
Posts: 108243
Lоcаtion: Киев (Kyiv, UA)
Age: 45
Name: Andrey
spiralarch wrote:
и альбом 93-го года :blum:

Ок, сменил снова =)
Кста, помимо Хэлфорда четко слышна еще и манера пения Элсфорта :umnik:

_________________


Top
 Profile E-mail  
 
 
PostPosted: 31 Jul 2012 
Прокъмитолист
User avatar
Joined: 12 Aug 2007
Posts: 6504
Lоcаtion: Санктъ-Петербуркъ
Age: 51
Name: Олекъ
Scatterbrain wrote:
манера пения Элсфорта

сейчас уже ближе ) но все равно голос достаточно самобытный и узнаваемый (для меня по крайней мере).

_________________
прокъметол - это музыко, от которово есть прок (ы)


Top
 Profile  
 
 
PostPosted: 31 Jul 2012 
Хиппей (support team)
User avatar
Joined: 30 Jul 2007
Posts: 108243
Lоcаtion: Киев (Kyiv, UA)
Age: 45
Name: Andrey
Да я не спорю. Для меня тоже уже стал узнаваемым очень. Никаких клонирований. Еще сюда добавлю приятную схожесть с Миднайтом.
Обожаю такие разнотембральные вокальные данные :meloman:
Единственное, что не всегда нравится в голосе Энди, это чисто АОР-овский тэмбр (как у Эллиота из Деф Леппард). В балладах он хорош, и вот в просто медленных композициях чего-то не очень :vic:

_________________


Top
 Profile E-mail  
 
 
PostPosted: 31 Jul 2012 
Хиппей (support team)
User avatar
Joined: 30 Jul 2007
Posts: 108243
Lоcаtion: Киев (Kyiv, UA)
Age: 45
Name: Andrey
Кстати, про Хэлфорда...
Вот трэк. Да, вокал на Робовский, но местами проскакивает. Ну а сама песня упрощенная и замедленная версия "Пня" :pardon:

phpBB [youtube]

_________________


Top
 Profile E-mail  
 
Display posts from previous:  Sort by  
Post new topic Reply to topic  [ 8 posts ] 

All times are UTC + 3 hours


Who is online

Users browsing this forum: No registered users and 2 guests


You cannot post new topics in this forum
You cannot reply to topics in this forum
You cannot edit your posts in this forum
You cannot delete your posts in this forum
You cannot post attachments in this forum

Search for:
Яндекс.Метрика
Powered by phpBB © 2000, 2002, 2005, 2007 phpBB Group