\m/ 80's metal \m/

Информационно-аналитический форум "80 см пыли" (In Search We Trust) "У нас никто никуда не спешит"
Me For You - http://me-4u.com
It is currently 19 Sep 2018

All times are UTC + 3 hours

Spoiler
Chat - temporary registration for foreign users (please leave your application here)







Post new topic Reply to topic  [ 1 post ] 
Author Message
 
PostPosted: 19 Jul 2012 
Хиппей (support team)
User avatar
Joined: 30 Jul 2007
Posts: 106311
Lоcаtion: Киев (Kyiv, UA)
Age: 45
Name: Andrey
M-Pire (Joshua Perahia) - 1995 - Chapter One (reissued 2001) [flac]

Image

Genre: Hard & Heavy
Location: USA
Format: flac + cue + log + scans
Size: 429 Mb


Line-up:

Joshua Perahia - guitars, vocals
Joey Rochrich - bass, bocals
Eric Stoskopf - drums, percussion

Image

    1. Concrete Jungle - 04:29
    2. You Want It All - 05:10
    3. Steady Weapon - 05:31
    4. One Night Is Not Enough - 04:23
    5. Long Way To Heaven - 05:24
    6. Dark Days - 04:47
    7. It Must Be Love - 04:51
    8. Tears Of Joy - 05:47
    9. Bad Man - 04:49
    10. Walk Into The Light - 03:52
    11. Devil's River - 05:32
    12. Rght On Target - 04:39

    TPT: 59:14

MultiUp l Narod

Хороший, качественный хэви в духе конца 80-х.
Вокал мощный и... привычный. Нельзя его назвать клоном Себастиана Баха, но, где-то совсем рядом и Metal Church рядом. По интонациям.
В остальном же обычный хэви, техничный, но без лишних наворотов и без какой-то либо своей изюминки.

Тем не менее, альбом мне понравился.

7/10

Источник рипа указан в логе :thanx:

log
Exact Audio Copy V0.99 prebeta 1 from 25. May 2007

EAC extraction logfile from 2. July 2012, 21:07

M-Pire (Joshua Perahia) / Chapter One

Used drive : Optiarc DVD RW AD-7201S Adapter: 1 ID: 1

Read mode : Secure
Utilize accurate stream : Yes
Defeat audio cache : Yes
Make use of C2 pointers : No

Read offset correction : 48
Overread into Lead-In and Lead-Out : No
Fill up missing offset samples with silence : Yes
Delete leading and trailing silent blocks : No
Used interface : Installed external ASPI interface

Used output format : Internal WAV Routines
Sample format : 44.100 Hz; 16 Bit; Stereo


TOC of the extracted CD

Track | Start | Length | Start sector | End sector
---------------------------------------------------------
1 | 0:00.00 | 4:29.35 | 0 | 20209
2 | 4:29.35 | 5:11.15 | 20210 | 43549
3 | 9:40.50 | 5:31.70 | 43550 | 68444
4 | 15:12.45 | 4:24.65 | 68445 | 88309
5 | 19:37.35 | 5:24.60 | 88310 | 112669
6 | 25:02.20 | 4:48.35 | 112670 | 134304
7 | 29:50.55 | 4:53.35 | 134305 | 156314
8 | 34:44.15 | 5:49.25 | 156315 | 182514
9 | 40:33.40 | 4:50.30 | 182515 | 204294
10 | 45:23.70 | 3:54.05 | 204295 | 221849
11 | 49:18.00 | 5:34.10 | 221850 | 246909
12 | 54:52.10 | 4:44.45 | 246910 | 268254


Range status and errors

Selected range

Filename D:\Перезалив Рипы на Darksage\M-Pire (Joshua Perahia) - Chapter One.wav

Peak level 100.0 %
Range quality 100.0 %
Copy CRC BFC4DF54
Copy OK

No errors occurred

End of status report

cue
REM GENRE "Hard Rock"
REM DATE 1995
REM DISCID A90DF80C
REM COMMENT "ExactAudioCopy v0.99pb1"
PERFORMER "M-Pire (Joshua Perahia)"
TITLE "Chapter One"
FILE "M-Pire (Joshua Perahia) - Chapter One.wav" WAVE
TRACK 01 AUDIO
TITLE "Concrete Jungle"
PERFORMER "M-Pire (Joshua Perahia)"
FLAGS DCP
INDEX 01 00:00:00
TRACK 02 AUDIO
TITLE "You Want It All"
PERFORMER "M-Pire (Joshua Perahia)"
INDEX 01 04:29:35
TRACK 03 AUDIO
TITLE "Steady Weapon"
PERFORMER "M-Pire (Joshua Perahia)"
INDEX 01 09:40:50
TRACK 04 AUDIO
TITLE "One Night Is Not Enough"
PERFORMER "M-Pire (Joshua Perahia)"
FLAGS DCP
INDEX 01 15:12:45
TRACK 05 AUDIO
TITLE "Long Way To Heaven"
PERFORMER "M-Pire (Joshua Perahia)"
FLAGS DCP
INDEX 01 19:37:35
TRACK 06 AUDIO
TITLE "Dark Days"
PERFORMER "M-Pire (Joshua Perahia)"
FLAGS DCP
INDEX 01 25:02:20
TRACK 07 AUDIO
TITLE "It Must Be Love"
PERFORMER "M-Pire (Joshua Perahia)"
FLAGS DCP
INDEX 01 29:50:55
TRACK 08 AUDIO
TITLE "Tears Of Joy"
PERFORMER "M-Pire (Joshua Perahia)"
INDEX 01 34:44:15
TRACK 09 AUDIO
TITLE "Bad Man"
PERFORMER "M-Pire (Joshua Perahia)"
FLAGS DCP
INDEX 01 40:33:40
TRACK 10 AUDIO
TITLE "Walk Into The Light"
PERFORMER "M-Pire (Joshua Perahia)"
INDEX 01 45:23:70
TRACK 11 AUDIO
TITLE "Devil's River"
PERFORMER "M-Pire (Joshua Perahia)"
INDEX 01 49:18:00
TRACK 12 AUDIO
TITLE "Right On Target"
PERFORMER "M-Pire (Joshua Perahia)"
INDEX 01 54:52:10

spectrum
Image



phpBB [youtube]

_________________


Top
 Profile E-mail  
 
Display posts from previous:  Sort by  
Post new topic Reply to topic  [ 1 post ] 

All times are UTC + 3 hours


Who is online

Users browsing this forum: No registered users and 1 guest


You cannot post new topics in this forum
You cannot reply to topics in this forum
You cannot edit your posts in this forum
You cannot delete your posts in this forum
You cannot post attachments in this forum

Search for:
Яндекс.Метрика
Powered by phpBB © 2000, 2002, 2005, 2007 phpBB Group