\m/ 80's metal \m/

Информационно-аналитический форум "80 см пыли" (In Search We Trust) "У нас никто никуда не спешит"
Me For You - http://me-4u.com
It is currently 13 Nov 2018

All times are UTC + 3 hours

Spoiler
Chat - temporary registration for foreign users (please leave your application here)







Post new topic Reply to topic  [ 4 posts ] 
Author Message
 
PostPosted: 19 Jul 2012 
Генеральный thrasher
User avatar
Joined: 03 Oct 2008
Posts: 3493
Lоcаtion: Ханты-Мансийский АО
Age: 43
Name: Сергей
Image

Year:2006
Style:Thrash Metal
Country:Brazil
Audio:Flac+Cue+Log+Scans
Size:240Mb
Label:Kill Again Records
Source:my CD

Line-Up:
Raphael — vocal/bass
Andre — guitar
Adriano — guitar
Daniel — drums

Tracklist:
01. Intro / Heads Blow 05:33
02. Dead Again 03:56
03. Blind Minds 03:40
04. Misery Existence 03:17
05. Kill or Die 03:12
06. Bastard Race 07:05
07. Marching to War 03:41

Cue
REM GENRE "Thrash Metal"
REM DATE 2006
REM DISCID 59072307
REM COMMENT "ExactAudioCopy v0.99pb5"
PERFORMER "Mortage"
TITLE "Trench For Evolution"
FILE "Mortage - Trench For Evolution.flac" WAVE
TRACK 01 AUDIO
TITLE "Intro/Heads Blow"
PERFORMER "Mortage"
INDEX 01 00:00:00
TRACK 02 AUDIO
TITLE "Dead Again"
PERFORMER "Mortage"
INDEX 00 05:31:58
INDEX 01 05:33:58
TRACK 03 AUDIO
TITLE "Blind Minds"
PERFORMER "Mortage"
INDEX 00 09:28:45
INDEX 01 09:30:45
TRACK 04 AUDIO
TITLE "Misery Existence"
PERFORMER "Mortage"
INDEX 00 13:08:55
INDEX 01 13:10:55
TRACK 05 AUDIO
TITLE "Kill Or Die"
PERFORMER "Mortage"
INDEX 00 16:26:49
INDEX 01 16:28:49
TRACK 06 AUDIO
TITLE "Bastard Race"
PERFORMER "Mortage"
INDEX 00 19:38:71
INDEX 01 19:40:71
TRACK 07 AUDIO
TITLE "Marching To War"
PERFORMER "Mortage"
INDEX 00 26:43:71
INDEX 01 26:45:71


Log
Exact Audio Copy V0.99 prebeta 5 from 4. May 2009

Отчёт EAC об извлечении, выполненном 18. июля 2012, 13:07

Mortage / Trench For Evolution

Дисковод: TSSTcorpCDDVDW SH-S202N Adapter: 0 ID: 1

Режим чтения : Достоверность
Использование точного потока : Да
Отключение кэша аудио : Да
Использование указателей C2 : Нет

Коррекция смещения при чтении : 6
Способность читать области Lead-in и Lead-out : Нет
Заполнение пропущенных сэмплов тишиной : Да
Удаление блоков с тишиной в начале и конце : Нет
При вычислениях CRC использовались нулевые сэмплы : Да
Интерфейс : Встроенный Win32-интерфейс для Win NT/2000

Выходной формат : Пользовательский кодировщик
Выбранный битрейт : 768 kBit/s
Качество : Высокий
Добавление ID3-тэга : Нет
Утилита сжатия : C:\Program Files\Exact Audio Copy\FLAC\FLAC.EXE
Дополнительные параметры : -6 -V -T "ARTIST=%a" -T "TITLE=%t" -T "ALBUM=%g" -T "DATE=%y" -T "TRACKNUMBER=%n" -T "GENRE=%m" -T "COMMENT=%e" %s -o %d


TOC извлечённого CD

Трек | Старт | Длительность | Начальный сектор | Конечный сектор
---------------------------------------------------------------------
1 | 0:00.00 | 5:33.58 | 0 | 25032
2 | 5:33.58 | 3:56.62 | 25033 | 42794
3 | 9:30.45 | 3:40.10 | 42795 | 59304
4 | 13:10.55 | 3:17.69 | 59305 | 74148
5 | 16:28.49 | 3:12.22 | 74149 | 88570
6 | 19:40.71 | 7:05.00 | 88571 | 120445
7 | 26:45.71 | 3:41.57 | 120446 | 137077


Характеристики диапазона извлечения и сообщения об ошибках

Выбранный диапазон

Имя файла E:\Лоси\M\Mortage - Trench For Evolution.wav

Пиковый уровень 100.0 %
Качество диапазона 100.0 %
CRC копии BC87CA78
Копирование... OK

Ошибок не произошло


AccurateRip: сводка

Трек 1 нет в базе данных
Трек 2 нет в базе данных
Трек 3 нет в базе данных
Трек 4 нет в базе данных
Трек 5 нет в базе данных
Трек 6 нет в базе данных
Трек 7 нет в базе данных

Ни одного трека нет в базе AccurateRip

Конец отчёта


Trench For Evolution

Продолжаю коллекционировать трэш из Южной Америки...


Top
 Profile  
 
 
PostPosted: 19 Jul 2012 
А может смените мне статус?..
User avatar
Joined: 02 Feb 2009
Posts: 999
Lоcаtion: из Тулы
Age: 44
Name: Максим
не нужны тебе кое какие диски?
я свои продаю
готовлю каталог

_________________
КМА


Top
 Profile  
 
 
PostPosted: 19 Jul 2012 
Генеральный thrasher
User avatar
Joined: 03 Oct 2008
Posts: 3493
Lоcаtion: Ханты-Мансийский АО
Age: 43
Name: Сергей
Скинь в личку список,Максим.А что случилось?К чему приурочена распродажа?


Top
 Profile  
 
 
PostPosted: 19 Jul 2012 
Хиппей (support team)
User avatar
Joined: 30 Jul 2007
Posts: 107899
Lоcаtion: Киев (Kyiv, UA)
Age: 45
Name: Andrey
Серёг, спасибо :thanx:

_________________


Top
 Profile E-mail  
 
Display posts from previous:  Sort by  
Post new topic Reply to topic  [ 4 posts ] 

All times are UTC + 3 hours


Who is online

Users browsing this forum: No registered users and 1 guest


You cannot post new topics in this forum
You cannot reply to topics in this forum
You cannot edit your posts in this forum
You cannot delete your posts in this forum
You cannot post attachments in this forum

Search for:
Яндекс.Метрика
Powered by phpBB © 2000, 2002, 2005, 2007 phpBB Group