\m/ 80's metal \m/

Информационно-аналитический форум "80 см пыли" (In Search We Trust) "У нас никто никуда не спешит"
Me For You - http://me-4u.com
It is currently 29 Jan 2020

All times are UTC + 3 hours

Spoiler
Chat - temporary registration for foreign users (please leave your application here)







Post new topic Reply to topic  [ 11 posts ] 
Author Message
 
PostPosted: 07 Jul 2012 
Хиппей (support team)
User avatar
Joined: 30 Jul 2007
Posts: 117235
Lоcаtion: Киев (Kyiv, UA)
Age: 46
Name: Andrey
Midas Touch - 1989 - Presage of Disaster [flac]

Image

Genre: Technical Speed Thrash
Location: Sweden
Format: flac + cue + log + scans
Size: 286 Mb


Line-up:

Patrik Wirén - vocals
Rickard Sporrong - guitars
Lasse Gustavsson - guitars
Patrik Sporrong - bass
Bosse Lundstrom - drums

Image

    1. The Arrival - 01:10
    2. Forcibly Incarcerated - 03:57
    3. Sinking Censorship - 03:46
    4. When the Boot Comes Down - 04:21
    5. True Believers Inc. - 03:27
    6. Reminiscence - 01:20
    7. Sepulchral Epitaph - 04:03
    8. Lost Paradise ( instrumental) - 01:16
    9. Acessory Before the Fact - 05:31
    10. Aceldalma - Terminal Breath - 03:55
    11. Subhumanity (A New Cycle) - 02:46

    TPT: 35:38

Источник рипа: http://rutracker.org/forum/viewtopic.php?t=1809866 :thanx:

MultiUp l Narod

7/10

Скоростной техничный трэшак от шведов.
Плюсы - качество и достаточно оригинальное звучание и подача идей. Немного парят интры и заставки перед, после и в середине каждого трэка. Но, парят именно что из-за устоявшейся дикой жары на улице.
На самом деле в конце третьего трэка водичка льется. Откель? Нуу... сами послушайте.
И вообще, так как этой альбом в начале 90-х на просторах бывшего СССР мог не слышать лишь тот, кто... не имел его копии на кассете, то и описывать особого смысла содержания не хочу =)

Альбом мне нравился что сейчас, что тогда.

зы. Всё, нет сил, пальцы липнут к клаве и клава к пальцам.
Если что, Толик явно парочку слов по релизу добавит :dance:

log
Exact Audio Copy V0.99 prebeta 4 from 23. January 2008

Отчёт EAC об извлечении, выполненном 2. мая 2009, 20:42

Midas Touch / Presage of Disaster

Дисковод: PIONEER DVD-RW DVR-112D Adapter: 1 ID: 0

Режим чтения : Достоверность
Использование точного потока : Да
Отключение кэша аудио : Да
Использование указателей C2 : Нет

Коррекция смещения при чтении : 48
Способность читать области Lead-in и Lead-out : Нет
Заполнение пропущенных сэмплов тишиной : Да
Удаление блоков с тишиной в начале и конце : Нет
При вычислениях CRC использовались нулевые сэмплы : Нет
Интерфейс : Установленный внешний ASPI-интерфейс

Выходной формат : Пользовательский кодировщик
Выбранный битрейт : 768 kBit/s
Качество : Высокий
Добавление ID3-тэга : Нет
Утилита сжатия : C:\Program Files\Exact Audio Copy\FLAC\FLAC.EXE
Дополнительные параметры : -8 -V -T "ARTIST=%a" -T "TITLE=%t" -T "ALBUM=%g" -T "DATE=%y" -T "TRACKNUMBER=%n" -T "GENRE=%m" -T "COMMENT=%e" %s -o %d


TOC извлечённого CD

Трек | Старт | Длительность | Начальный сектор | Конечный сектор
---------------------------------------------------------------------
1 | 0:00.00 | 1:11.27 | 0 | 5351
2 | 1:11.27 | 3:57.18 | 5352 | 23144
3 | 5:08.45 | 3:46.15 | 23145 | 40109
4 | 8:54.60 | 4:21.35 | 40110 | 59719
5 | 13:16.20 | 3:27.47 | 59720 | 75291
6 | 16:43.67 | 1:19.68 | 75292 | 81284
7 | 18:03.60 | 4:03.50 | 81285 | 99559
8 | 22:07.35 | 1:16.65 | 99560 | 105324
9 | 23:24.25 | 5:31.52 | 105325 | 130201
10 | 28:56.02 | 3:55.23 | 130202 | 147849
11 | 32:51.25 | 2:46.65 | 147850 | 160364


Характеристики диапазона извлечения и сообщения об ошибках

Выбранный диапазон

Имя файла C:\deminbek\Midas Touch - Presage of Disaster.wav

Пиковый уровень 100.0 %
Качество диапазона 100.0 %
CRC теста 31AC5536
CRC копии 31AC5536
Копирование... OK

Ошибок не произошло


AccurateRip: сводка

Трек 1 нет в базе данных
Трек 2 нет в базе данных
Трек 3 нет в базе данных
Трек 4 нет в базе данных
Трек 5 нет в базе данных
Трек 6 нет в базе данных
Трек 7 нет в базе данных
Трек 8 нет в базе данных
Трек 9 точное извлечение (доверие 1) [D8D406C3]
Трек 10 точное извлечение (доверие 1) [5DBD4B64]
Трек 11 точное извлечение (доверие 1) [1BAD6ECF]

3 трек(и) скопированы точно
8 трек(и) не содержатся в базе AccurateRip

Некоторые треки не прошли проверку на точность

Конец отчёта

cue
REM GENRE Rock
REM DATE 1989
REM DISCID 8B085A0B
REM COMMENT "ExactAudioCopy v0.99pb4"
PERFORMER "Midas Touch"
TITLE "Presage of Disaster"
FILE "Midas Touch - Presage of Disaster.flac" WAVE
TRACK 01 AUDIO
TITLE "The Arrival"
PERFORMER "Midas Touch"
INDEX 01 00:00:00
TRACK 02 AUDIO
TITLE "Forcibly Incarcerated"
PERFORMER "Midas Touch"
INDEX 01 01:11:27
TRACK 03 AUDIO
TITLE "Sinking Censorship"
PERFORMER "Midas Touch"
INDEX 01 05:08:45
TRACK 04 AUDIO
TITLE "When The Boot Comes Down"
PERFORMER "Midas Touch"
INDEX 00 08:52:60
INDEX 01 08:54:60
TRACK 05 AUDIO
TITLE "True Believers Inc."
PERFORMER "Midas Touch"
INDEX 01 13:16:20
TRACK 06 AUDIO
TITLE "Reminiscense"
PERFORMER "Midas Touch"
INDEX 01 16:43:67
TRACK 07 AUDIO
TITLE "Sepulchral Epitah"
PERFORMER "Midas Touch"
INDEX 01 18:03:60
TRACK 08 AUDIO
TITLE "Lost Paradise"
PERFORMER "Midas Touch"
INDEX 01 22:07:35
TRACK 09 AUDIO
TITLE "Accessory Before The Fact"
PERFORMER "Midas Touch"
INDEX 01 23:24:25
TRACK 10 AUDIO
TITLE "Aceldama-Terminal Breath"
PERFORMER "Midas Touch"
INDEX 01 28:56:02
TRACK 11 AUDIO
TITLE "Subhumanity (A New Cycle)"
PERFORMER "Midas Touch"
INDEX 01 32:51:25

spectrum
Image

_________________


Top
 Profile E-mail  
 
 
PostPosted: 09 Jul 2012 
Персональный статус
Joined: 19 Jul 2010
Posts: 282
Lоcаtion: Москва
Name: Вадим
Кстати, да, неплохой альбом в стиле техно-треш. Но на любителя, как мне кажется - некоторые мои друзья до сих пор при его виде кривятся в усмешке. :-))


Top
 Profile E-mail  
 
 
PostPosted: 09 Jul 2012 
Хиппей (support team)
User avatar
Joined: 30 Jul 2007
Posts: 117235
Lоcаtion: Киев (Kyiv, UA)
Age: 46
Name: Andrey
Скорее всего они его в нормальном качестве не слушали и в наушниках :umnik:
Я помню очень долго его с кассеты не мог воспринять, звучало всё кашеобразно как-то.

_________________


Top
 Profile E-mail  
 
 
PostPosted: 10 Jul 2012 
Персональный статус
Joined: 19 Jul 2010
Posts: 282
Lоcаtion: Москва
Name: Вадим
Не из-за качества точно, у меня он уже достаточно давно на СиДи имеется - давал на прослушку неоднократно. Не въезжают, что называется, в саму музыку. У меня тоже такие альбомы попадаются - например, второй Гриндер. Многие за ним гоняются, а для меня так монотонная скукотища. :-))


Top
 Profile E-mail  
 
 
PostPosted: 10 Jul 2012 
Хиппей (support team)
User avatar
Joined: 30 Jul 2007
Posts: 117235
Lоcаtion: Киев (Kyiv, UA)
Age: 46
Name: Andrey
gonjubas wrote:
например, второй Гриндер. Многие за ним гоняются, а для меня так монотонная скукотища. :-))

Второй лучший в дискографии группы, а вот третий, да, там уже не торт :nea:

_________________


Top
 Profile E-mail  
 
 
PostPosted: 12 Jul 2012 
Персональный статус
Joined: 19 Jul 2010
Posts: 282
Lоcаtion: Москва
Name: Вадим
Scatterbrain wrote:
gonjubas wrote:
например, второй Гриндер. Многие за ним гоняются, а для меня так монотонная скукотища. :-))

Второй лучший в дискографии группы, а вот третий, да, там уже не торт :nea:

О, видишь как, а мне третий как раз нравится. :-))


Top
 Profile E-mail  
 
 
PostPosted: 12 Jul 2012 
Хиппей (support team)
User avatar
Joined: 30 Jul 2007
Posts: 117235
Lоcаtion: Киев (Kyiv, UA)
Age: 46
Name: Andrey
Хм, забавно =) А у многих как раз первый, дебютник, лучшим считается.
В общем, надоть будет всю дискографию как-то с.копом переслушать :umnik:

_________________


Top
 Profile E-mail  
 
 
PostPosted: 25 Sep 2013 
Хиппей (support team)
User avatar
Joined: 30 Jul 2007
Posts: 117235
Lоcаtion: Киев (Kyiv, UA)
Age: 46
Name: Andrey
Тьху. Зачем-то еще раз скачал этот альбом и отзеркалил :vic:

mirror mirror: Narod

_________________


Top
 Profile E-mail  
 
 
PostPosted: 25 Sep 2013 
Рарник и трушник
User avatar
Joined: 25 Dec 2009
Posts: 8878
Lоcаtion: Москва
Age: 54
Name: Виталий
Спасибо, Андрей! :thanx:
Как-то мимо прошел цид. Не, я конечно знаю команду по винилу, но вот цида не было. :umnik:


Top
 Profile  
 
 
PostPosted: 25 Sep 2013 
Хиппей (support team)
User avatar
Joined: 30 Jul 2007
Posts: 117235
Lоcаtion: Киев (Kyiv, UA)
Age: 46
Name: Andrey
Ура, нас стало трое в этом топике, а это уже банда :true:

За рип с диска Димке спасибо :thanx:

_________________


Top
 Profile E-mail  
 
 
PostPosted: 25 Sep 2013 
А может смените мне статус?..
User avatar
Joined: 28 Jul 2008
Posts: 993
Lоcаtion: Украина---Днепропетровск
Age: 45
Name: Александр
Да о чем говорить-это были золотые 90-е в плане данной музыки!

_________________
Музыка в которой я растворяюсь многих угнетает......


Top
 Profile  
 
Display posts from previous:  Sort by  
Post new topic Reply to topic  [ 11 posts ] 

All times are UTC + 3 hours


Who is online

Users browsing this forum: No registered users and 1 guest


You cannot post new topics in this forum
You cannot reply to topics in this forum
You cannot edit your posts in this forum
You cannot delete your posts in this forum
You cannot post attachments in this forum

Search for:
Яндекс.Метрика
Powered by phpBB © 2000, 2002, 2005, 2007 phpBB Group