\m/ 80's metal \m/

Информационно-аналитический форум "80 см пыли" (In Search We Trust) "У нас никто никуда не спешит"
Me For You - http://me-4u.com
It is currently 18 Sep 2018

All times are UTC + 3 hours

Spoiler
Chat - temporary registration for foreign users (please leave your application here)







Post new topic Reply to topic  [ 7 posts ] 
Author Message
 
PostPosted: 03 May 2012 
Генеральный thrasher
User avatar
Joined: 03 Oct 2008
Posts: 3445
Lоcаtion: Ханты-Мансийский АО
Age: 43
Name: Сергей
Image

Year:2005
Style:Hard Rock
Country:Czech Republic
Audio:Flac Tracks+Cue+Log
Size:356Mb

Tracklist:
01. Horus
02. Vrtoch
03. Ovládnutí gravitace
04. Noci v N. Y.
05. 12. 8. 2005 (Ve znamení Lva)
06. Pramen jistoty
07. Duální světy
08. Šakára
09. Hromový klín
10. Nejvyšší vibrace

Cue
REM GENRE rock
REM DATE 2005
REM DISCID 830B190A
REM COMMENT "ExactAudioCopy v1.0b2"
PERFORMER "Milos Dodo Dolezal"
TITLE "Nejvyssi vibrace"
FILE "01. Horus.wav" WAVE
TRACK 01 AUDIO
TITLE "Horus"
PERFORMER "Milos Dodo Dolezal"
FLAGS DCP
INDEX 01 00:00:00
TRACK 02 AUDIO
TITLE "Vrtoch"
PERFORMER "Milos Dodo Dolezal"
FLAGS DCP
INDEX 00 04:44:56
FILE "02. Vrtoch.wav" WAVE
INDEX 01 00:00:00
TRACK 03 AUDIO
TITLE "Ovladnuti gravitace"
PERFORMER "Milos Dodo Dolezal"
FLAGS DCP
INDEX 00 05:34:05
FILE "03. Ovladnuti gravitace.wav" WAVE
INDEX 01 00:00:00
TRACK 04 AUDIO
TITLE "Noci v N. Y."
PERFORMER "Milos Dodo Dolezal"
FLAGS DCP
INDEX 00 04:16:23
FILE "04. Noci v N. Y..wav" WAVE
INDEX 01 00:00:00
TRACK 05 AUDIO
TITLE "12. 8. 2005 Ve znameni Lva"
PERFORMER "Milos Dodo Dolezal"
FLAGS DCP
INDEX 00 04:29:13
FILE "05. 12. 8. 2005 Ve znameni Lva.wav" WAVE
INDEX 01 00:00:00
TRACK 06 AUDIO
TITLE "Pramen jistoty"
PERFORMER "Milos Dodo Dolezal"
FLAGS DCP
INDEX 00 03:16:36
FILE "06. Pramen jistoty.wav" WAVE
INDEX 01 00:00:00
TRACK 07 AUDIO
TITLE "Dualni svety"
PERFORMER "Milos Dodo Dolezal"
FLAGS DCP
INDEX 00 04:31:60
FILE "07. Dualni svety.wav" WAVE
INDEX 01 00:00:00
TRACK 08 AUDIO
TITLE "Sakara"
PERFORMER "Milos Dodo Dolezal"
FLAGS DCP
INDEX 00 04:34:12
FILE "08. Sakara.wav" WAVE
INDEX 01 00:00:00
TRACK 09 AUDIO
TITLE "Hromovy klin"
PERFORMER "Milos Dodo Dolezal"
FLAGS DCP
INDEX 00 05:02:62
FILE "09. Hromovy klin.wav" WAVE
INDEX 01 00:00:00
TRACK 10 AUDIO
TITLE "Nejvyssi vibrace"
PERFORMER "Milos Dodo Dolezal"
FLAGS DCP
INDEX 00 04:36:65
FILE "10. Nejvyssi vibrace.wav" WAVE
INDEX 01 00:00:00


Log
Exact Audio Copy V1.0 beta 2 from 29. April 2011

Protokol extrakce EAC z 1. Listopad 2011, 23:17

Milos Dodo Dolezal / Nejvyssi vibrace

Použitá mechanika : HL-DT-STBD-RE BH12LS30 Adapter: 0 ID: 1

Režim čtení : Bezpečný
Použít accurate stream : Ano
Obejít zvukovou vyr. paměť : Ano
Použít C2 ukazatele : Ne

Korekce vychýlení čtení : 667
Číst lead-in a lead-out : Ne
Nahradit chybějící vzorky tichem : Ano
Smazat ticho na začátku a na konci stop : Ne
Při výpočtu CRC použity nulové vzorky : Ano
Použité rozhraní : Integrované Win32 rozhraní pro NT/2k/XP
Nakládání s mezerami : Nedetekovány - přidány k předchozí stopě

Použitý výstupní formát : Uživatelsky definovaný enkodér
Zvolený datový tok : 1024 kBit/s
Kvalita : Vysoká
Přidat ID3 tag : Ne
Komprimační program pro příkazový řádek : C:\Program Files (x86)\Exact Audio Copy\FLAC\FLAC.EXE
Dodatečné parametry : -0 -V -T "ARTIST=%artist%" -T "TITLE=%title%" -T "ALBUM=%albumtitle%" -T "DATE=%year%" -T "TRACKNUMBER=%tracknr%" -T "GENRE=%genre%" -T "COMMENT=%comment%" -T "BAND=%albuminterpret%" -T "COMPOSER=%composer%" %haslyr


TOC extrahovaného CD

Stopa | Počátek | Délka | Počáteční sektor | Koncový sektor
-----------------------------------------------------------------
1 | 0:00.00 | 4:46.56 | 0 | 21505
2 | 4:46.56 | 5:36.05 | 21506 | 46710
3 | 10:22.61 | 4:18.23 | 46711 | 66083
4 | 14:41.09 | 4:31.13 | 66084 | 86421
5 | 19:12.22 | 3:18.36 | 86422 | 101307
6 | 22:30.58 | 4:33.60 | 101308 | 121842
7 | 27:04.43 | 4:36.12 | 121843 | 142554
8 | 31:40.55 | 5:04.62 | 142555 | 165416
9 | 36:45.42 | 4:38.65 | 165417 | 186331
10 | 41:24.32 | 5:57.40 | 186332 | 213146


Stopa 1

název souboru C:\Users\Ivo\Music\01. Horus.wav

špičková úroveň 99.9 %
rychlost extrakce0.5 X
kvalita stopy 100.0 %
CRC testu 1DD82F02
CRC kopie 1DD82F02
Stopa není v AccurateRip databázi
kopie OK

Stopa 2

název souboru C:\Users\Ivo\Music\02. Vrtoch.wav

špičková úroveň 99.8 %
rychlost extrakce0.5 X
kvalita stopy 100.0 %
CRC testu FB8844F7
CRC kopie FB8844F7
Stopa není v AccurateRip databázi
kopie OK

Stopa 3

název souboru C:\Users\Ivo\Music\03. Ovladnuti gravitace.wav

špičková úroveň 99.7 %
rychlost extrakce0.5 X
kvalita stopy 99.9 %
CRC testu 80FD5AC7
CRC kopie 80FD5AC7
Stopa není v AccurateRip databázi
kopie OK

Stopa 4

název souboru C:\Users\Ivo\Music\04. Noci v N. Y..wav

špičková úroveň 99.8 %
rychlost extrakce0.6 X
kvalita stopy 100.0 %
CRC testu ECF256F3
CRC kopie ECF256F3
Stopa není v AccurateRip databázi
kopie OK

Stopa 5

název souboru C:\Users\Ivo\Music\05. 12. 8. 2005 Ve znameni Lva.wav

špičková úroveň 99.9 %
rychlost extrakce0.6 X
kvalita stopy 100.0 %
CRC testu DA352581
CRC kopie DA352581
Stopa není v AccurateRip databázi
kopie OK

Stopa 6

název souboru C:\Users\Ivo\Music\06. Pramen jistoty.wav

špičková úroveň 99.8 %
rychlost extrakce0.6 X
kvalita stopy 100.0 %
CRC testu 1455239A
CRC kopie 1455239A
Stopa není v AccurateRip databázi
kopie OK

Stopa 7

název souboru C:\Users\Ivo\Music\07. Dualni svety.wav

špičková úroveň 99.9 %
rychlost extrakce0.7 X
kvalita stopy 100.0 %
CRC testu 6AB816A0
CRC kopie 6AB816A0
Stopa není v AccurateRip databázi
kopie OK

Stopa 8

název souboru C:\Users\Ivo\Music\08. Sakara.wav

špičková úroveň 100.0 %
rychlost extrakce0.7 X
kvalita stopy 100.0 %
CRC testu F996CD40
CRC kopie F996CD40
Stopa není v AccurateRip databázi
kopie OK

Stopa 9

název souboru C:\Users\Ivo\Music\09. Hromovy klin.wav

špičková úroveň 98.9 %
rychlost extrakce0.6 X
kvalita stopy 99.9 %
CRC testu 86E9716E
CRC kopie 86E9716E
Stopa není v AccurateRip databázi
kopie OK

Stopa 10

název souboru C:\Users\Ivo\Music\10. Nejvyssi vibrace.wav

špičková úroveň 100.0 %
rychlost extrakce0.7 X
kvalita stopy 100.0 %
CRC testu 2EA05B16
CRC kopie 2EA05B16
Stopa není v AccurateRip databázi
kopie OK


Ani jedna ze stop není v AccurateRip databázi

Nedošlo k žádným chybám

Konec protokolu

==== Kontrolní součet protokolu 5076A57A6C81895F11108F69B67FB320743B121622354687C3238567B001FC69 ====



Nejvyssi vibrace

Найдено в сети.Можно ещё один альбом из запросов Сани glloomerxe убирать...


Top
 Profile  
 
 
PostPosted: 08 May 2012 
Хиппей (support team)
User avatar
Joined: 30 Jul 2007
Posts: 106301
Lоcаtion: Киев (Kyiv, UA)
Age: 45
Name: Andrey
:thanx:

mirror: MultiUp l Narod

Найду запрос, затем совмещу темы, если что.

_________________


Top
 Profile E-mail  
 
 
PostPosted: 09 May 2012 
Хиппей (support team)
User avatar
Joined: 30 Jul 2007
Posts: 106301
Lоcаtion: Киев (Kyiv, UA)
Age: 45
Name: Andrey
Спектр смазанный какой-то... :vic:

spectrum
Image

_________________


Top
 Profile E-mail  
 
 
PostPosted: 10 May 2012 
Генеральный thrasher
User avatar
Joined: 03 Oct 2008
Posts: 3445
Lоcаtion: Ханты-Мансийский АО
Age: 43
Name: Сергей
Да..спектры ныне печальная тема. :( Мне этот альбом не нужен.Если бы не был в поиске , я бы мимо прошел и не постил его сюда.


Top
 Profile  
 
 
PostPosted: 10 May 2012 
хард н хэвщик (support team)
User avatar
Joined: 02 Jun 2008
Posts: 16880
Lоcаtion: Н.Новгород
Age: 31
Name: Артем
спектр нормальный.
есть небольшое уменьшение сигнала после 12 кГЦ, но это и близко не стоит с мп3шными срезами


Top
 Profile  
 
 
PostPosted: 10 May 2012 
Хиппей (support team)
User avatar
Joined: 30 Jul 2007
Posts: 106301
Lоcаtion: Киев (Kyiv, UA)
Age: 45
Name: Andrey
Звук нормальный, это не аперкод :dance: Или как его там.. Апконверт? :shok:

_________________


Top
 Profile E-mail  
 
 
PostPosted: 29 Jul 2012 
Трешер
User avatar
Joined: 25 Feb 2011
Posts: 1045
Lоcаtion: Харьков
Age: 42
Name: Aleksandr
:true: Супер ! Спасибо забираю :thanx:


Top
 Profile E-mail  
 
Display posts from previous:  Sort by  
Post new topic Reply to topic  [ 7 posts ] 

All times are UTC + 3 hours


Who is online

Users browsing this forum: No registered users and 1 guest


You cannot post new topics in this forum
You cannot reply to topics in this forum
You cannot edit your posts in this forum
You cannot delete your posts in this forum
You cannot post attachments in this forum

Search for:
Яндекс.Метрика
Powered by phpBB © 2000, 2002, 2005, 2007 phpBB Group