\m/ 80's metal \m/

Информационно-аналитический форум "80 см пыли" (In Search We Trust) "У нас никто никуда не спешит"
Me For You - http://me-4u.com
It is currently 25 Sep 2018

All times are UTC + 3 hours

Spoiler
Chat - temporary registration for foreign users (please leave your application here)







Post new topic Reply to topic  [ 8 posts ] 
Author Message
 
PostPosted: 28 Jun 2008 
труъ антисионист
User avatar
Joined: 01 Aug 2007
Posts: 4541
Lоcаtion: Откуда и большинство из нас
Age: 37
Name: Дядя Вова
* Перезалейте, пожалуйста: | Re-up please:
Monster Magnet - 4 Way Diablo (2007) with 14. "Tomorrow's Sun" [Vinyl Exclusive Bonustrack] - 5:25


Image

Группа: Monster Magnet
Альбом: 4 Way Diablo
Год: 2007
Лейбл: SPV
Стиль: Stoner Rock
Страна: USA
Формат: APE
Размер: 410 Mb

[b]Line Up:[/b]
* Dave Wyndorf - Vocals & Guitar
* Ed Mundell - Lead Guitar
* Bob Pantella - Drums
* Jim Baglino - Bass


Track listing:
1. "4-Way Diablo" - 3:19
2. "Wall of Fire" - 3:44
3. "You're Alive" - 4:03
4. "Blow Your Mind" - 4:27
5. "Cyclone" - 5:32
6. "2000 Light Years from Home" - 4:51 (Mick Jagger, Keith Richards)
7. "No Vacation" - 5:01
8. "I'm Calling You" - 4:21
9. "Solid Gold" - 5:51
10. "Freeze and Pixillate" - 4:25
11. "A Thousand Stars" - 5:29
12. "Slap in the Face" - 4:26
13. "Little Bag of Gloom" - 2:18
14. "Tomorrow's Sun" [Vinyl Exclusive Bonustrack] - 5:25


Track 6 is a Rolling Stones cover, from their 1967 psychedelic rock album Their Satanic Majesties Request.
Track 7 "No Vacation" is a remake of "Atom Age Vampire", from Dave Wyndorf's 1988 "Love Monster" Demos.

Ifolder - Part 1
Ifolder - Part 2
Ifolder - Part 3
Ifolder - Part 4
Ifolder - Part 5

_________________
Image
Image


Top
 Profile  
 
 
PostPosted: 29 Jun 2015 
консэрваторъ
Joined: 11 Aug 2007
Posts: 15924
Lоcаtion: Псков
Age: 44
Name: Сергей
Альбом есть на тракторе здесь http://rutracker.org/forum/viewtopic.php?t=4566856
Правда без этого...
Glot wrote:
14. "Tomorrow's Sun" [Vinyl Exclusive Bonustrack] - 5:25

_________________
THRASH 'EM ALL


Top
 Profile E-mail  
 
 
PostPosted: 01 Jul 2015 
Хиппей (support team)
User avatar
Joined: 30 Jul 2007
Posts: 106547
Lоcаtion: Киев (Kyiv, UA)
Age: 45
Name: Andrey
Серёг, спасибо за ссылку :thanx:
Явно тот перезалью, а который был у нас здесь, обновим при первой же оказии :benya:

_________________


Top
 Profile E-mail  
 
 
PostPosted: 02 Jul 2015 
Хиппей (support team)
User avatar
Joined: 30 Jul 2007
Posts: 106547
Lоcаtion: Киев (Kyiv, UA)
Age: 45
Name: Andrey
Monster Magnet - 2007 4-Way Diablo [flac]

Image Image Image Image Image

Image Image Image Image Image




1. "4-Way Diablo" - 3:19
2. "Wall of Fire" - 3:44
3. "You're Alive" - 4:03
4. "Blow Your Mind" - 4:27
5. "Cyclone" - 5:32
6. "2000 Light Years from Home" - 4:51 (Mick Jagger, Keith Richards)
7. "No Vacation" - 5:01
8. "I'm Calling You" - 4:21
9. "Solid Gold" - 5:51
10. "Freeze and Pixillate" - 4:25
11. "A Thousand Stars" - 5:29
12. "Slap in the Face" - 4:26
13. "Little Bag of Gloom" - 2:18

mirror: iFolder l M-Cloud l Narod

По сути, это неформат. Замедленный, утяжелённый и мелодичный грандж, который зачем-то часто обзывают стонером :pardon:
Но альбом хорош, весьма хорош свои разнообразием и эмоциональным надрывом.
Как будто у ёжика запор, в общем....

6+/10

Image

log
Exact Audio Copy V1.0 beta 3 from 29. August 2011

EAC extraction logfile from 14. December 2013, 15:11

Monster Magnet / 4-Way Diablo (Steamhammer, SPV 98372 CD)

Used drive : PIONEER DVD-RW DVR-219L Adapter: 1 ID: 0

Read mode : Secure
Utilize accurate stream : Yes
Defeat audio cache : Yes
Make use of C2 pointers : No

Read offset correction : 6
Overread into Lead-In and Lead-Out : No
Fill up missing offset samples with silence : Yes
Delete leading and trailing silent blocks : No
Null samples used in CRC calculations : Yes
Used interface : Native Win32 interface for Win NT & 2000

Used output format : Internal WAV Routines
Sample format : 44.100 Hz; 16 Bit; Stereo


TOC of the extracted CD

Track | Start | Length | Start sector | End sector
---------------------------------------------------------
1 | 0:00.00 | 3:19.51 | 0 | 14975
2 | 3:19.51 | 3:44.41 | 14976 | 31816
3 | 7:04.17 | 4:03.50 | 31817 | 50091
4 | 11:07.67 | 4:27.34 | 50092 | 70150
5 | 15:35.26 | 5:32.47 | 70151 | 95097
6 | 21:07.73 | 4:51.43 | 95098 | 116965
7 | 25:59.41 | 5:00.74 | 116966 | 139539
8 | 31:00.40 | 4:21.60 | 139540 | 159174
9 | 35:22.25 | 5:51.19 | 159175 | 185518
10 | 41:13.44 | 4:25.54 | 185519 | 205447
11 | 45:39.23 | 5:29.47 | 205448 | 230169
12 | 51:08.70 | 4:26.44 | 230170 | 250163
13 | 55:35.39 | 2:18.12 | 250164 | 260525


Range status and errors

Selected range

Filename D:\.www.AvaxHome.ru\Monster Magnet - 4-Way Diablo (Steamhammer, SPV 98372 CD).wav

Peak level 98.8 %
Extraction speed 7.1 X
Range quality 99.9 %
Test CRC F5D17843
Copy CRC F5D17843
Copy OK

No errors occurred


AccurateRip summary

Track 1 accurately ripped (confidence 8) [2D5DEF44] (AR v2)
Track 2 accurately ripped (confidence 8) [E2CE8515] (AR v2)
Track 3 accurately ripped (confidence 8) [BE602923] (AR v2)
Track 4 accurately ripped (confidence 8) [BAC60DAF] (AR v2)
Track 5 accurately ripped (confidence 8) [F6A2694E] (AR v2)
Track 6 accurately ripped (confidence 8) [2CB0EAFF] (AR v2)
Track 7 accurately ripped (confidence 8) [C9BB16F9] (AR v2)
Track 8 accurately ripped (confidence 8) [D1976994] (AR v2)
Track 9 accurately ripped (confidence 8) [54CE5575] (AR v2)
Track 10 accurately ripped (confidence 8) [DD9A36E4] (AR v2)
Track 11 accurately ripped (confidence 8) [4A32C746] (AR v2)
Track 12 accurately ripped (confidence 8) [147C0774] (AR v2)
Track 13 accurately ripped (confidence 8) [FBDC8CBD] (AR v2)

All tracks accurately ripped

End of status report

---- CUETools DB Plugin V2.1.4

[CTDB TOCID: 1g0x94WAQBRi0ktb9zADNu0rwug-] found
Submit result: 1g0x94WAQBRi0ktb9zADNu0rwug- has been confirmed
Track | CTDB Status
1 | (22/22) Accurately ripped
2 | (22/22) Accurately ripped
3 | (22/22) Accurately ripped
4 | (22/22) Accurately ripped
5 | (22/22) Accurately ripped
6 | (22/22) Accurately ripped
7 | (22/22) Accurately ripped
8 | (22/22) Accurately ripped
9 | (22/22) Accurately ripped
10 | (22/22) Accurately ripped
11 | (22/22) Accurately ripped
12 | (22/22) Accurately ripped
13 | (22/22) Accurately ripped


==== Log checksum CF398DD7C7801F7A59920A6BD24574BE25AFC5790B13D065B693A9216CA68E6A ====

cue
REM GENRE "Stoner Rock"
REM DATE 2007
REM DISCID AC0D910D
REM COMMENT "ExactAudioCopy v1.0b3"
PERFORMER "Monster Magnet"
TITLE "4-Way Diablo (Steamhammer, SPV 98372 CD)"
FILE "Monster Magnet - 4-Way Diablo (Steamhammer, SPV 98372 CD).flac" WAVE
TRACK 01 AUDIO
TITLE "4-Way Diablo"
PERFORMER "Monster Magnet"
ISRC DEA450708550
INDEX 01 00:00:00
TRACK 02 AUDIO
TITLE "Wall Of Fire"
PERFORMER "Monster Magnet"
ISRC DEA450708560
INDEX 01 03:19:51
TRACK 03 AUDIO
TITLE "You're Alive"
PERFORMER "Monster Magnet"
ISRC DEA450708570
INDEX 01 07:04:17
TRACK 04 AUDIO
TITLE "Blow Your Mind"
PERFORMER "Monster Magnet"
ISRC DEA450708580
INDEX 01 11:07:67
TRACK 05 AUDIO
TITLE "Cyclone"
PERFORMER "Monster Magnet"
ISRC DEA450708590
INDEX 01 15:35:26
TRACK 06 AUDIO
TITLE "2000 Light Years From Home"
PERFORMER "Monster Magnet"
ISRC DEA450708600
INDEX 01 21:07:73
TRACK 07 AUDIO
TITLE "No Vacation"
PERFORMER "Monster Magnet"
ISRC DEA450708610
INDEX 01 25:59:41
TRACK 08 AUDIO
TITLE "I'm Calling You"
PERFORMER "Monster Magnet"
ISRC DEA450708620
INDEX 01 31:00:40
TRACK 09 AUDIO
TITLE "Solid Gold"
PERFORMER "Monster Magnet"
ISRC DEA450708630
INDEX 01 35:22:25
TRACK 10 AUDIO
TITLE "Freeze And Pixillate"
PERFORMER "Monster Magnet"
ISRC DEA450708640
INDEX 01 41:13:44
TRACK 11 AUDIO
TITLE "A Thousand Stars"
PERFORMER "Monster Magnet"
ISRC DEA450708650
INDEX 01 45:39:23
TRACK 12 AUDIO
TITLE "Slap In The Face"
PERFORMER "Monster Magnet"
ISRC DEA450708660
INDEX 01 51:08:70
TRACK 13 AUDIO
TITLE "Little Bag Of Gloom"
PERFORMER "Monster Magnet"
ISRC DEA450708670
INDEX 01 55:35:39

_________________


Top
 Profile E-mail  
 
 
PostPosted: 03 Jul 2015 
Хиппей (support team)
User avatar
Joined: 30 Jul 2007
Posts: 106547
Lоcаtion: Киев (Kyiv, UA)
Age: 45
Name: Andrey
Ихххихи, Серёг, ты тоже ссылки Вовкины в первом сообщении не проверил? :nunu:

_________________


Top
 Profile E-mail  
 
 
PostPosted: 03 Jul 2015 
Хиппей (support team)
User avatar
Joined: 30 Jul 2007
Posts: 106547
Lоcаtion: Киев (Kyiv, UA)
Age: 45
Name: Andrey
Хм...хмм... однако.... :lloo:

Quote:
Скачать файл

№ 7109468

Файл номер 7109468 удален. File is removed.


И это уже после трёх кликов, ввода кода и якобы просмотра рекламы выдало мне такое :fingal:

_________________


Top
 Profile E-mail  
 
 
PostPosted: 03 Jul 2015 
консэрваторъ
Joined: 11 Aug 2007
Posts: 15924
Lоcаtion: Псков
Age: 44
Name: Сергей
ВотЪ :oldman: Теперь смотришь рекламу, конспектируешь, что где покупать, куда деньги нести и никакой моральной компенсации опосля...

_________________
THRASH 'EM ALL


Top
 Profile E-mail  
 
 
PostPosted: 03 Jul 2015 
Хиппей (support team)
User avatar
Joined: 30 Jul 2007
Posts: 106547
Lоcаtion: Киев (Kyiv, UA)
Age: 45
Name: Andrey
Да рекламу то я не смотрю, но зря теряю 3 секунды до того, как получу инфу о том, что ссылки давно просрочены :fingal:
Всё же USD в этом плане рулит - он сразу выдаёт, нет файла на сервере или есть..


Эх, ну что, оставляет тему в реапах :pardon:

_________________


Top
 Profile E-mail  
 
Display posts from previous:  Sort by  
Post new topic Reply to topic  [ 8 posts ] 

All times are UTC + 3 hours


Who is online

Users browsing this forum: No registered users and 1 guest


You cannot post new topics in this forum
You cannot reply to topics in this forum
You cannot edit your posts in this forum
You cannot delete your posts in this forum
You cannot post attachments in this forum

Search for:
Яндекс.Метрика
Powered by phpBB © 2000, 2002, 2005, 2007 phpBB Group