\m/ 80's metal \m/

Информационно-аналитический форум "80 см пыли" (In Search We Trust) "У нас никто никуда не спешит"
Me For You - http://me-4u.com
It is currently 15 Nov 2018

All times are UTC + 3 hours

Spoiler
Chat - temporary registration for foreign users (please leave your application here)







Post new topic Reply to topic  [ 14 posts ] 
Author Message
 
PostPosted: 15 Apr 2012 
Работнечег
User avatar
Joined: 28 Aug 2007
Posts: 5511
Lоcаtion: г. Москва
Age: 29
Name: Дима
Image

Band: Mass
Album: Take You Home
Label: Medusa Records
Genre: Heavy Metal
Country: USA
Format: Flac + Log + Cue + Covers
Size: 160 Mb

Line-Up:
Louie St. August - Vocals
Gene D'Itria - Guitars
Kevin Varrio - Bass
Joey "Vee" Vadala - Drums


Tracklist:
1. Pedal To The Metal 03:46
2. Can't Get Enough 03:02
3. Want It Back 02:59
4. Over You 04:02
5. Take You Home 02:55
6. Holy One 06:04

LOG
Exact Audio Copy V0.99 prebeta 5 from 4. May 2009

EAC extraction logfile from 8. April 2012, 12:04

Mass / Take You Home EP

Used drive : PIONEER DVD-RW DVR-116D Adapter: 0 ID: 0

Read mode : Secure
Utilize accurate stream : Yes
Defeat audio cache : Yes
Make use of C2 pointers : No

Read offset correction : 96
Overread into Lead-In and Lead-Out : No
Fill up missing offset samples with silence : Yes
Delete leading and trailing silent blocks : No
Null samples used in CRC calculations : Yes
Used interface : Native Win32 interface for Win NT & 2000

Used output format : User Defined Encoder
Selected bitrate : 32 kBit/s
Quality : High
Add ID3 tag : No
Command line compressor : C:\Program Files\Exact Audio Copy\Flac\flac.exe
Additional command line options : -6 -V %s


TOC of the extracted CD

Track | Start | Length | Start sector | End sector
---------------------------------------------------------
1 | 0:00.60 | 3:46.32 | 60 | 17041
2 | 3:47.17 | 3:01.68 | 17042 | 30684
3 | 6:49.10 | 2:58.65 | 30685 | 44099
4 | 9:48.00 | 4:01.65 | 44100 | 62239
5 | 13:49.65 | 2:54.15 | 62240 | 75304
6 | 16:44.05 | 6:02.70 | 75305 | 102524


Range status and errors

Selected range

Filename D:\Музыка\Lossless\Mass - Take You Home EP (1988)\Mass - Take You Home EP.wav

Peak level 96.4 %
Range quality 99.9 %
Copy CRC D2EA5DC2
Copy OK

No errors occurred


AccurateRip summary

Track 1 accurately ripped (confidence 2) [CB55C378]
Track 2 accurately ripped (confidence 2) [EB546E49]
Track 3 accurately ripped (confidence 2) [2982A3CB]
Track 4 accurately ripped (confidence 2) [BBE49A84]
Track 5 accurately ripped (confidence 2) [3A0F4B71]
Track 6 accurately ripped (confidence 2) [BA27CF6F]

All tracks accurately ripped

End of status report

CUE
REM GENRE "Heavy Metal"
REM DATE 1988
REM DISCID 36055706
REM COMMENT "ExactAudioCopy v0.99pb5"
PERFORMER "Mass"
TITLE "Take You Home EP"
FILE "Mass - Take You Home EP.flac" WAVE
TRACK 01 AUDIO
TITLE "Pedal To The Metal"
PERFORMER "Mass"
INDEX 00 00:00:00
INDEX 01 00:00:60
TRACK 02 AUDIO
TITLE "Can't Get Enough"
PERFORMER "Mass"
INDEX 01 03:47:17
TRACK 03 AUDIO
TITLE "Want It Back"
PERFORMER "Mass"
INDEX 01 06:49:10
TRACK 04 AUDIO
TITLE "Over You"
PERFORMER "Mass"
INDEX 00 09:45:45
INDEX 01 09:48:00
TRACK 05 AUDIO
TITLE "Take You Home"
PERFORMER "Mass"
INDEX 01 13:49:65
TRACK 06 AUDIO
TITLE "Holy One"
PERFORMER "Mass"
INDEX 00 16:43:20
INDEX 01 16:44:05

Spectrum
Image


Narod.Ru

:true: :true: :true:


Top
 Profile E-mail  
 
 
PostPosted: 15 Apr 2012 
А может смените мне статус?..
Joined: 03 Jul 2009
Posts: 800
Lоcаtion: Serbia
Name: Laki
Thanks


Top
 Profile E-mail  
 
 
PostPosted: 15 Apr 2012 
Пионэръ
User avatar
Joined: 02 Jul 2010
Posts: 45
Lоcаtion: Сочи
Age: 46
Name: Борис
Спасибо !! :meloman:


Top
 Profile E-mail  
 
 
PostPosted: 15 Apr 2012 
Прокъмитолист
User avatar
Joined: 12 Aug 2007
Posts: 6504
Lоcаtion: Санктъ-Петербуркъ
Age: 51
Name: Олекъ
glory11 wrote:
Thanks

и от меня одно :thanx:

_________________
прокъметол - это музыко, от которово есть прок (ы)


Top
 Profile  
 
 
PostPosted: 16 Apr 2012 
А может смените мне статус?..
Joined: 12 Dec 2008
Posts: 988
Lоcаtion: BULGARIA
Age: 40
Name: DIMITЪR
Спасибочки , хорошенко!!! :true:


Top
 Profile  
 
 
PostPosted: 16 Apr 2012 
спирт 100%
User avatar
Joined: 22 Sep 2008
Posts: 4312
Age: 47
Name: Саня
Дим, Спасибо!


Top
 Profile  
 
 
PostPosted: 16 Apr 2012 
Труъ
User avatar
Joined: 14 Jul 2009
Posts: 158
Lоcаtion: Hell Is Here
Age: 48
Name: Adriano
Many Thanx ! :true:


Top
 Profile E-mail  
 
 
PostPosted: 16 Apr 2012 
Генеральный thrasher
User avatar
Joined: 03 Oct 2008
Posts: 3498
Lоcаtion: Ханты-Мансийский АО
Age: 43
Name: Сергей
:thanx: :losik:


Top
 Profile  
 
 
PostPosted: 16 Apr 2012 
А может смените мне статус?..
User avatar
Joined: 24 Dec 2008
Posts: 621
Age: 44
Name: Дмитрий
Благодарствуем-с!


Top
 Profile  
 
 
PostPosted: 16 Apr 2012 
Я набрал 1000 сообщений!
Joined: 24 Oct 2009
Posts: 2094
Lоcаtion: Оренбург
Age: 55
Name: Юра
Дима Спасибо! :gra:

_________________
:dash: I am happy!


Top
 Profile E-mail  
 
 
PostPosted: 16 Apr 2012 
Я набрал 1000 сообщений!
Joined: 24 Oct 2009
Posts: 2094
Lоcаtion: Оренбург
Age: 55
Name: Юра
Ещё бы 2007

_________________
:dash: I am happy!


Top
 Profile E-mail  
 
 
PostPosted: 16 Apr 2012 
Пионэръ
Joined: 22 Jun 2010
Posts: 16
Lоcаtion: Madrid
Name: Xose
Thanks a lot!!! :true:


Top
 Profile E-mail  
 
 
PostPosted: 16 Apr 2012 
Хиппей (support team)
User avatar
Joined: 30 Jul 2007
Posts: 108029
Lоcаtion: Киев (Kyiv, UA)
Age: 45
Name: Andrey
:thanx:

mirror: Speedy l Narod

_________________


Top
 Profile E-mail  
 
 
PostPosted: 22 Apr 2012 
Персональный статус
User avatar
Joined: 22 Oct 2011
Posts: 352
Lоcаtion: Moscow
Age: 59
Name: Серёжа
:thanx:


Top
 Profile E-mail  
 
Display posts from previous:  Sort by  
Post new topic Reply to topic  [ 14 posts ] 

All times are UTC + 3 hours


Who is online

Users browsing this forum: No registered users and 1 guest


You cannot post new topics in this forum
You cannot reply to topics in this forum
You cannot edit your posts in this forum
You cannot delete your posts in this forum
You cannot post attachments in this forum

Search for:
Яндекс.Метрика
Powered by phpBB © 2000, 2002, 2005, 2007 phpBB Group