\m/ 80's metal \m/

Информационно-аналитический форум "80 см пыли" (In Search We Trust) "У нас никто никуда не спешит"
Me For You - http://me-4u.com
It is currently 16 Nov 2018

All times are UTC + 3 hours

Spoiler
Chat - temporary registration for foreign users (please leave your application here)







Post new topic Reply to topic  [ 11 posts ] 
Author Message
 
PostPosted: 29 Mar 2012 
адын фелософъ прокметолу
User avatar
Joined: 22 Oct 2009
Posts: 2709
Lоcаtion: Сочи
Age: 41
Name: Сергей
Mindscape (Ita) -1993 - Get Used To It [flac]
Image

Genre: Heavy Metal
Location: Italy
Format: flac+cue+log+scans
Size: 376 Mb

Line-up:
Alessandro Verdelli - Vocals
Fabrizio Appetito - Guitar
Dario Bergamo - Guitar
Sabina Feraiorni - Bass
Armando Appetito - Drums

Tracklist:
1. Heal Your Heart 4:49
2. Electric Mind 3:40
3. Tearin' Us Apart 3:41
4. This Time 4:14
5. Tear Down The Walls 3:21
6. Keep It All 5:46
7. Stir Me Up 4:14
8. Days Like Crazy 3:46
9. Hard Warning 7:00
10. Shut Your Mouth 4:32
11. Heartache Calling 6:04

log
Отчёт EAC об извлечении, выполненном 29. марта 2012, 12:41 для диска:
Mindscape (Ita) / Get Used To It

Дисковод: Optiarc BD RW BD-5300S Adapter: 1 ID: 1
Режим чтения: Достоверный (C2: нет, Точный поток: да, Отключение кэша: да)
Коррекция смещения при чтении: 48
Способность читать области Lead-in и Lead-out : Нет

Выходной формат: Внутренние WAV-операции
44.100 Гц; 16 бит; стерео

Другие параметры:
Заполнение пропущенных сэмплов тишиной : Да
Удаление блоков с тишиной в начале и конце : Нет
Установленный внешний ASPI-интерфейс


Характеристики диапазона извлечения и сообщения об ошибках
Выбранный диапазон
Имя файла C:\Users\Сергей\Music\Mindscape (Ita) - Get Used To It.wav

Пиковый уровень 93.6 %
Качество диапазона 100.0 %
CRC 75C093B6
Копирование... OK

Ошибок не произошло

Конец отчёта


cue
REM GENRE "Heavy Metal"
REM DATE 1993
REM DISCID 920C0B0B
REM COMMENT "ExactAudioCopy v0.95b4"
PERFORMER "Mindscape (Ita)"
TITLE "Get Used To It"
FILE "Mindscape (Ita) - Get Used To It.wav" WAVE
TRACK 01 AUDIO
TITLE "Heal Your Heart"
PERFORMER "Mindscape (Ita)"
INDEX 01 00:00:00
TRACK 02 AUDIO
TITLE "Electric Mind"
PERFORMER "Mindscape (Ita)"
INDEX 01 04:49:15
TRACK 03 AUDIO
TITLE "Tearin'us Apart"
PERFORMER "Mindscape (Ita)"
INDEX 01 08:30:00
TRACK 04 AUDIO
TITLE "This Time"
PERFORMER "Mindscape (Ita)"
INDEX 01 12:13:40
TRACK 05 AUDIO
TITLE "Tear Down The Walls"
PERFORMER "Mindscape (Ita)"
INDEX 01 16:28:25
TRACK 06 AUDIO
TITLE "Keep It All"
PERFORMER "Mindscape (Ita)"
INDEX 01 19:51:20
TRACK 07 AUDIO
TITLE "Strip Me Up"
PERFORMER "Mindscape (Ita)"
INDEX 01 25:40:65
TRACK 08 AUDIO
TITLE "Days Like Cazy"
PERFORMER "Mindscape (Ita)"
INDEX 01 29:55:65
TRACK 09 AUDIO
TITLE "Hard Warning"
PERFORMER "Mindscape (Ita)"
INDEX 01 33:41:60
TRACK 10 AUDIO
TITLE "Shut Yor Mounth"
PERFORMER "Mindscape (Ita)"
INDEX 01 40:43:50
TRACK 11 AUDIO
TITLE "Heartache Calling"
PERFORMER "Mindscape (Ita)"
INDEX 01 45:17:20


spectrum
Image


Speedy

_________________
А теперь ... клоунов и стриптизёрш!


Top
 Profile E-mail  
 
 
PostPosted: 29 Mar 2012 
Прокъмитолист
User avatar
Joined: 12 Aug 2007
Posts: 6504
Lоcаtion: Санктъ-Петербуркъ
Age: 51
Name: Олекъ
заберу для компании голландцам. спасибо, Серёга :thanx:

_________________
прокъметол - это музыко, от которово есть прок (ы)


Top
 Profile  
 
 
PostPosted: 29 Mar 2012 
Хиппей (support team)
User avatar
Joined: 30 Jul 2007
Posts: 108030
Lоcаtion: Киев (Kyiv, UA)
Age: 45
Name: Andrey
:thanx:

mirror: iFolder l Narod l M-Cloud

_________________


Top
 Profile E-mail  
 
 
PostPosted: 29 Mar 2012 
спирт 100%
User avatar
Joined: 22 Sep 2008
Posts: 4312
Age: 47
Name: Саня
Серёга,Спасибо! :thanx: :true:


Top
 Profile  
 
 
PostPosted: 18 Sep 2016 
Хиппей (support team)
User avatar
Joined: 30 Jul 2007
Posts: 108030
Lоcаtion: Киев (Kyiv, UA)
Age: 45
Name: Andrey
Занятное дело.
Спустя... 4 с половиной года :crazy: пришло сообщение от человека, записывающего этот диск :kro:
В общем, Серёга диск давно купил.
Что тому композитору ответить?

Image

_________________


Top
 Profile E-mail  
 
 
PostPosted: 18 Sep 2016 
консэрваторъ
Joined: 11 Aug 2007
Posts: 16180
Lоcаtion: Псков
Age: 44
Name: Сергей
Просто кратко сэнкснуть... мало ли чо... :pardon:

_________________
THRASH 'EM ALL


Top
 Profile E-mail  
 
 
PostPosted: 18 Sep 2016 
Хиппей (support team)
User avatar
Joined: 30 Jul 2007
Posts: 108030
Lоcаtion: Киев (Kyiv, UA)
Age: 45
Name: Andrey
Да сразу так и сделал =)

Image

зы. Явно надо бы тему с запросом сюда влепить. Да она будет выше самого лося...

_________________


Top
 Profile E-mail  
 
 
PostPosted: 18 Sep 2016 
Хиппей (support team)
User avatar
Joined: 30 Jul 2007
Posts: 108030
Lоcаtion: Киев (Kyiv, UA)
Age: 45
Name: Andrey
wizard12 wrote:
Mindscape (Ita) -1993 - Get Used To It

Акцент какой у вокалиста... Итальянский... :oops:

_________________


Top
 Profile E-mail  
 
 
PostPosted: 18 Sep 2016 
Хиппей (support team)
User avatar
Joined: 30 Jul 2007
Posts: 108030
Lоcаtion: Киев (Kyiv, UA)
Age: 45
Name: Andrey
Серёг, єто ж ошибка?
Альбом приписан голландцам :shok:

http://www.metal-archives.com/albums/Mi ... to_It/6507

_________________


Top
 Profile E-mail  
 
 
PostPosted: 18 Sep 2016 
Хиппей (support team)
User avatar
Joined: 30 Jul 2007
Posts: 108030
Lоcаtion: Киев (Kyiv, UA)
Age: 45
Name: Andrey
В общем, альбом прикольный, но слушать второй раз некогда пока, потому так:
Это Heavy Metal с примесью прога и павера, и иногда глэмовых уместных кривляний.
На релизе около 4-5 хитов.
Группа частенько использует женский вокал, как второй или бэковый. Зачастую получается хорошо и опять-таки, прикольно и уместно.

5/10

Ещё раз спасибо за знакомство с коллективом :thanx:

_________________


Top
 Profile E-mail  
 
 
PostPosted: 18 Sep 2016 
Хиппей (support team)
User avatar
Joined: 30 Jul 2007
Posts: 108030
Lоcаtion: Киев (Kyiv, UA)
Age: 45
Name: Andrey
Классная ж песня? :lob: :lob: :lob:



Жаль на альбоме мало таких...

_________________


Top
 Profile E-mail  
 
Display posts from previous:  Sort by  
Post new topic Reply to topic  [ 11 posts ] 

All times are UTC + 3 hours


Who is online

Users browsing this forum: No registered users and 2 guests


You cannot post new topics in this forum
You cannot reply to topics in this forum
You cannot edit your posts in this forum
You cannot delete your posts in this forum
You cannot post attachments in this forum

Search for:
Яндекс.Метрика
Powered by phpBB © 2000, 2002, 2005, 2007 phpBB Group