\m/ 80's metal \m/

Информационно-аналитический форум "80 см пыли" (In Search We Trust) "У нас никто никуда не спешит"
Me For You - http://me-4u.com
It is currently 15 Nov 2018

All times are UTC + 3 hours

Spoiler
Chat - temporary registration for foreign users (please leave your application here)







Post new topic Reply to topic  [ 5 posts ] 
Author Message
 
PostPosted: 14 Mar 2012 
Генеральный thrasher
User avatar
Joined: 03 Oct 2008
Posts: 3496
Lоcаtion: Ханты-Мансийский АО
Age: 43
Name: Сергей
Image

Year:2010
Style:Hard Rock
Country:Czech Republic
Audio:Ape+Cue+Log+Scans+Videoclip
Size:567Mb
Label:T Production
Source:oldrock

Line-Up:
Miloš Dodo Doležal - guitar
Pavel Slechan - drums
Buchta - bass

Guests:
Miloš Doležal jr. - bass
Radek Sladky - drums
Daniel Hafstein - drums
Walda Gang - vocals

Tracklist:
01. Hrdej ceskej lev
02. Psi stin
03. Despekt
04. Samuraj
05. Otrok (Welcome To America)
06. Kroky nikam
07. Temnej plamen
08. Ras-putin
09. Memento Mori(son)
10. Tady a ted
11. Rovnovaha
12. Kral je mrtev

Cue
REM ACCURATERIPID 001a706a-00fb4121-b510350d
REM DISCID B510350D
REM COMMENT "ExactAudioCopy v0.99pb4"
PERFORMER "Milos Dodo Dolezal"
TITLE "Despekt"
CATALOG 4160582077
REM DATE 2010
REM DISCNUMBER 1
REM TOTALDISCS 1
REM GENRE "Metal"
FILE "Milos Dodo Dolezal - Despekt.ape" WAVE
TRACK 01 AUDIO
PERFORMER "Milos Dodo Dolezal"
TITLE "Hrdej ceskej lev"
INDEX 01 00:00:00
TRACK 02 AUDIO
PERFORMER "Milos Dodo Dolezal"
TITLE "Psi stin"
INDEX 00 04:06:35
INDEX 01 04:08:35
TRACK 03 AUDIO
PERFORMER "Milos Dodo Dolezal"
TITLE "Despekt"
INDEX 00 09:25:27
INDEX 01 09:27:27
TRACK 04 AUDIO
PERFORMER "Milos Dodo Dolezal"
TITLE "Samuraj"
INDEX 00 13:50:43
INDEX 01 13:52:43
TRACK 05 AUDIO
PERFORMER "Milos Dodo Dolezal"
TITLE "Otrok (Welcome To America)"
INDEX 00 17:57:47
INDEX 01 17:59:47
TRACK 06 AUDIO
PERFORMER "Milos Dodo Dolezal"
TITLE "Kroky nikam"
INDEX 00 23:27:20
INDEX 01 23:29:20
TRACK 07 AUDIO
PERFORMER "Milos Dodo Dolezal"
TITLE "Temnej plamen"
INDEX 00 28:09:10
INDEX 01 28:11:10
TRACK 08 AUDIO
PERFORMER "Milos Dodo Dolezal"
TITLE "Ras-putin"
INDEX 00 34:00:68
INDEX 01 34:02:68
TRACK 09 AUDIO
PERFORMER "Milos Dodo Dolezal"
TITLE "Memento Mori(son)"
INDEX 00 37:56:46
INDEX 01 37:58:46
TRACK 10 AUDIO
PERFORMER "Milos Dodo Dolezal"
TITLE "Tady a ted"
INDEX 00 42:44:14
INDEX 01 42:46:14
TRACK 11 AUDIO
PERFORMER "Milos Dodo Dolezal"
TITLE "Rovnovaha"
INDEX 00 49:32:50
INDEX 01 49:34:50
TRACK 12 AUDIO
PERFORMER "Milos Dodo Dolezal"
TITLE "Kral je mrtev"
INDEX 00 54:20:15
INDEX 01 54:22:15


Log
CUERipper

EAC extraction logfile from 14. February 2012, 20:21

Milos Dodo Dolezal / Despekt

Used drive : TSSTcorp CDDVDW SE-S224Q Adapter: 1 ID: 0

Read mode : Secure
Utilize accurate stream : Yes
Defeat audio cache : Yes
Make use of C2 pointers : No

Read offset correction : 6
Overread into Lead-In and Lead-Out : No
Fill up missing offset samples with silence : Yes
Delete leading and trailing silent blocks : No
Null samples used in CRC calculations : Yes
Used interface : Native Win32 interface for Win NT & 2000

Used output format : Internal WAV Routines
Sample format : 44.100 Hz; 16 Bit; Stereo


TOC of the extracted CD

Track | Start | Length | Start sector | End sector
---------------------------------------------------------
1 | 0:00.00 | 4:08.35 | 0 | 18634
2 | 4:08.35 | 5:18.67 | 18635 | 42551
3 | 9:27.27 | 4:25.16 | 42552 | 62442
4 | 13:52.43 | 4:07.04 | 62443 | 80971
5 | 17:59.47 | 5:29.48 | 80972 | 105694
6 | 23:29.20 | 4:41.65 | 105695 | 126834
7 | 28:11.10 | 5:51.58 | 126835 | 153217
8 | 34:02.68 | 3:55.53 | 153218 | 170895
9 | 37:58.46 | 4:47.43 | 170896 | 192463
10 | 42:46.14 | 6:48.36 | 192464 | 223099
11 | 49:34.50 | 4:47.40 | 223100 | 244664
12 | 54:22.15 | 5:56.07 | 244665 | 271371
13 | 62:50.22 | 6:19.42 | 282772 | 311238


Range status and errors

Selected range

Filename C:\Users\oldrock\Music\Milos Dodo Dolezal\2010 - Despekt\Milos Dodo Dolezal - Despekt.wav

Peak level 99.8 %
Range quality 100.0 %
Test CRC 6BF7F7A0
Copy CRC 6BF7F7A0
Copy OK

No errors occurred


AccurateRip summary

Track 1 accurately ripped (confidence 1) [9B2E26A8]
Track 2 accurately ripped (confidence 1) [89047EF0]
Track 3 accurately ripped (confidence 1) [593E4C09]
Track 4 accurately ripped (confidence 1) [3C116BDB]
Track 5 accurately ripped (confidence 1) [03903A37]
Track 6 accurately ripped (confidence 1) [A229C621]
Track 7 accurately ripped (confidence 1) [65B69481]
Track 8 accurately ripped (confidence 1) [AA80AAE5]
Track 9 accurately ripped (confidence 1) [02D3AE39]
Track 10 accurately ripped (confidence 1) [67AA7BDC]
Track 11 accurately ripped (confidence 1) [D782217C]
Track 12 accurately ripped (confidence 1) [6BFE80D8]

All tracks accurately ripped

End of status report


Despekt


Top
 Profile  
 
 
PostPosted: 14 Mar 2012 
Генеральный thrasher
User avatar
Joined: 03 Oct 2008
Posts: 3496
Lоcаtion: Ханты-Мансийский АО
Age: 43
Name: Сергей
Тема почему-то продублировалась...


Top
 Profile  
 
 
PostPosted: 18 Mar 2012 
Трешер
User avatar
Joined: 25 Feb 2011
Posts: 1055
Lоcаtion: Харьков
Age: 42
Name: Aleksandr
От спасибо! :true:


Top
 Profile E-mail  
 
 
PostPosted: 19 Mar 2012 
Генеральный thrasher
User avatar
Joined: 03 Oct 2008
Posts: 3496
Lоcаtion: Ханты-Мансийский АО
Age: 43
Name: Сергей
Да пожалуйста,Сань...


Top
 Profile  
 
 
PostPosted: 19 Mar 2012 
Хиппей (support team)
User avatar
Joined: 30 Jul 2007
Posts: 108005
Lоcаtion: Киев (Kyiv, UA)
Age: 45
Name: Andrey
:thanx:

_________________


Top
 Profile E-mail  
 
Display posts from previous:  Sort by  
Post new topic Reply to topic  [ 5 posts ] 

All times are UTC + 3 hours


Who is online

Users browsing this forum: No registered users and 5 guests


You cannot post new topics in this forum
You cannot reply to topics in this forum
You cannot edit your posts in this forum
You cannot delete your posts in this forum
You cannot post attachments in this forum

Search for:
Яндекс.Метрика
Powered by phpBB © 2000, 2002, 2005, 2007 phpBB Group