\m/ 80's metal \m/

Информационно-аналитический форум "80 см пыли" (In Search We Trust) "У нас никто никуда не спешит"
Me For You - http://me-4u.com
It is currently 22 Sep 2018

All times are UTC + 3 hours

Spoiler
Chat - temporary registration for foreign users (please leave your application here)







Post new topic Reply to topic  [ 9 posts ] 
Author Message
 
PostPosted: 05 Mar 2012 
адын фелософъ прокметолу
User avatar
Joined: 22 Oct 2009
Posts: 2689
Lоcаtion: Сочи
Age: 41
Name: Сергей
Mindscape - 1995 - Mindscappe [flac]
Image

Genre: Progressive Metal
Location: Netherlands
Format: flac+cue+log+scans
Size: 394 Mb

Line-up:
Wilfried Broekman Drums
Rob van Lingen Guitars
Robert Van Haren Vocals
Pat Class Guitars

Tracklist:
1. I Can't 03:51
2. From A Distant Eye 04:54
3. Million Miles 07:59
4. Tripping In Dimension 08:04
5. Back From The Light 06:11
6. When Daylight Comes 07:38
7. Price Too High 06:10
8. Jamie's Clearing Up The Sky 07:20
9. Million Miles (Edit) 04:21
TPT:56:28


Log
Exact Audio Copy V1.0 beta 3 from 29. August 2011

Отчёт EAC об извлечении, выполненном 5. марта 2012, 20:36

Mindscape / Mindscape

Дисковод: HL-DT-STDVDRAM GT34N Adapter: 0 ID: 1

Режим чтения : Достоверность
Использование точного потока : Да
Отключение кэша аудио : Да
Использование указателей C2 : Нет

Коррекция смещения при чтении : 103
Способность читать области Lead-in и Lead-out : Нет
Заполнение пропущенных сэмплов тишиной : Да
Удаление блоков с тишиной в начале и конце : Нет
При вычислениях CRC использовались нулевые сэмплы : Да
Интерфейс : Встроенный Win32-интерфейс для Win NT/2000

Выходной формат : Внутренние WAV-операции
Формат сэмплов : 44.100 Гц; 16 бит; стерео


TOC извлечённого CD

Трек | Старт | Длительность | Начальный сектор | Конечный сектор
---------------------------------------------------------------------
1 | 0:00.00 | 3:59.10 | 0 | 17934
2 | 3:59.10 | 4:55.70 | 17935 | 40129
3 | 8:55.05 | 7:59.10 | 40130 | 76064
4 | 16:54.15 | 8:05.40 | 76065 | 112479
5 | 24:59.55 | 6:11.53 | 112480 | 140357
6 | 31:11.33 | 7:38.52 | 140358 | 174759
7 | 38:50.10 | 6:10.35 | 174760 | 202544
8 | 45:00.45 | 7:20.15 | 202545 | 235559
9 | 52:20.60 | 4:21.73 | 235560 | 255207


Характеристики диапазона извлечения и сообщения об ошибках

Выбранный диапазон

Имя файла C:\Users\asus\Documents\Mindscape - Mindscape.wav

Пиковый уровень 100.0 %
Скорость извлечения 2.1 X
Качество диапазона 100.0 %
CRC копии FDAA6463
Копирование... OK

Ошибок не произошло


AccurateRip: сводка

Трек 1 : извлечено точно (доверие 2) [B5A9AE37] (AR v1)
Трек 2 : извлечено точно (доверие 2) [3F828266] (AR v1)
Трек 3 : извлечено точно (доверие 2) [59E014F8] (AR v1)
Трек 4 : извлечено точно (доверие 2) [2BA6D867] (AR v1)
Трек 5 : извлечено точно (доверие 2) [C4F435F5] (AR v1)
Трек 6 : извлечено точно (доверие 2) [F419FF38] (AR v1)
Трек 7 : извлечено точно (доверие 2) [70A32272] (AR v1)
Трек 8 : извлечено точно (доверие 2) [CE3D95C5] (AR v1)
Трек 9 : извлечено точно (доверие 2) [C9553688] (AR v1)

Все треки извлечены точно

Конец отчёта


Cue
REM GENRE "Progressive Metal"
REM DATE 1995
REM DISCID 590D4A09
REM COMMENT "ExactAudioCopy v1.0b3"
PERFORMER "Mindscape"
TITLE "Mindscape"
FILE "Mindscape - Mindscape.wav" WAVE
TRACK 01 AUDIO
TITLE "I Can't"
PERFORMER "Mindscape"
INDEX 01 00:00:00
TRACK 02 AUDIO
TITLE "From A Distant Eye"
PERFORMER "Mindscape"
INDEX 00 03:57:48
INDEX 01 03:59:10
TRACK 03 AUDIO
TITLE "Million Miles"
PERFORMER "Mindscape"
INDEX 00 08:54:03
INDEX 01 08:55:05
TRACK 04 AUDIO
TITLE "Tripping In Dimensions"
PERFORMER "Mindscape"
INDEX 01 16:54:15
TRACK 05 AUDIO
TITLE "Back From The Light"
PERFORMER "Mindscape"
INDEX 00 24:58:20
INDEX 01 24:59:55
TRACK 06 AUDIO
TITLE "When Daylight Comes"
PERFORMER "Mindscape"
INDEX 01 31:11:33
TRACK 07 AUDIO
TITLE "Price Too High"
PERFORMER "Mindscape"
INDEX 01 38:50:10
TRACK 08 AUDIO
TITLE "Jamie's Clearing Up The Sky"
PERFORMER "Mindscape"
INDEX 01 45:00:45
TRACK 09 AUDIO
TITLE "Million Miles (Edit Version)"
PERFORMER "Mindscape"
INDEX 01 52:20:60


1995 год когда творчество Queensryche постепенно начало идти на спад и тогда восторжествовали Клоны :garmo: :boyan:

http://ifolder.ru/29112441

_________________
А теперь ... клоунов и стриптизёрш!


Last edited by wizard12 on 05 Mar 2012, edited 1 time in total.

Top
 Profile E-mail  
 
 
PostPosted: 05 Mar 2012 
хард н хэвщик (support team)
User avatar
Joined: 02 Jun 2008
Posts: 16880
Lоcаtion: Н.Новгород
Age: 31
Name: Артем
а мп3 не будет? :oops:


Top
 Profile  
 
 
PostPosted: 05 Mar 2012 
адын фелософъ прокметолу
User avatar
Joined: 22 Oct 2009
Posts: 2689
Lоcаtion: Сочи
Age: 41
Name: Сергей
будет

_________________
А теперь ... клоунов и стриптизёрш!


Top
 Profile E-mail  
 
 
PostPosted: 05 Mar 2012 
Хиппей (support team)
User avatar
Joined: 30 Jul 2007
Posts: 106427
Lоcаtion: Киев (Kyiv, UA)
Age: 45
Name: Andrey
:thanx:

mirror: Speedy l Narod

_________________


Top
 Profile E-mail  
 
 
PostPosted: 05 Mar 2012 
Хиппей (support team)
User avatar
Joined: 30 Jul 2007
Posts: 106427
Lоcаtion: Киев (Kyiv, UA)
Age: 45
Name: Andrey
McKagan wrote:
а мп3 не будет? :oops:

Тём, у тебя ж есть аудиограббер какой-то :crazy:
Про EAC молчу :pardon:

_________________


Top
 Profile E-mail  
 
 
PostPosted: 05 Mar 2012 
хард н хэвщик (support team)
User avatar
Joined: 02 Jun 2008
Posts: 16880
Lоcаtion: Н.Новгород
Age: 31
Name: Артем
Scatterbrain wrote:
Тём, у тебя ж есть аудиограббер какой-то :crazy:

ну как бы да :oops: но надо еще тыкать в пару менюшек, чтобы запустить конвертацию :oops: чет я разленился :shok:


Top
 Profile  
 
 
PostPosted: 05 Mar 2012 
Хиппей (support team)
User avatar
Joined: 30 Jul 2007
Posts: 106427
Lоcаtion: Киев (Kyiv, UA)
Age: 45
Name: Andrey
А ты лося скачай, залей частями на сервис типа онлайн-прослушки. И сграббь альбом оттуда в мп3 :crazy:

_________________


Top
 Profile E-mail  
 
 
PostPosted: 05 Mar 2012 
хард н хэвщик (support team)
User avatar
Joined: 02 Jun 2008
Posts: 16880
Lоcаtion: Н.Новгород
Age: 31
Name: Артем
Спасибо, Серега, скачал, начинаю слушать :meloman:


Top
 Profile  
 
 
PostPosted: 05 Mar 2012 
Прокъмитолист
User avatar
Joined: 12 Aug 2007
Posts: 6471
Lоcаtion: Санктъ-Петербуркъ
Age: 50
Name: Олекъ
Серёга, спасибо :thanx: :true:

_________________
прокъметол - это музыко, от которово есть прок (ы)


Top
 Profile  
 
Display posts from previous:  Sort by  
Post new topic Reply to topic  [ 9 posts ] 

All times are UTC + 3 hours


Who is online

Users browsing this forum: No registered users and 3 guests


You cannot post new topics in this forum
You cannot reply to topics in this forum
You cannot edit your posts in this forum
You cannot delete your posts in this forum
You cannot post attachments in this forum

Search for:
Яндекс.Метрика
Powered by phpBB © 2000, 2002, 2005, 2007 phpBB Group