\m/ 80's metal \m/

Информационно-аналитический форум "80 см пыли" (In Search We Trust) "У нас никто никуда не спешит"
Me For You - http://me-4u.com
It is currently 17 Dec 2018

All times are UTC + 3 hours

Spoiler
Chat - temporary registration for foreign users (please leave your application here)







Post new topic Reply to topic  [ 4 posts ] 
Author Message
 
PostPosted: 13 Feb 2012 
Я набрал 1000 сообщений!
Joined: 24 Oct 2009
Posts: 2124
Lоcаtion: Оренбург
Age: 55
Name: Юра
Image

Source: My Original CD
Year: 1999
Genre: Hard N' Heavy
Country: Sweden
Format: FLAC (Image+.cue) + Log +Covers
Size: 509МБ Mb (3% recovery)

Band:
Ebee Welle: Vocals
Anders Johansson: Drums
MIchael Borup: Bass
Richard Andersson: Keyboards
Jake Sendberg: Guitars
Michael Mansson: Guitars

Tracks:
1. Hounds Of Fulcrum Desert Eagle
2. Welcome To The Show
3. Touch Of Evil
4. Waste Your Time
5. Demolition
6. Forever
7. Part Of My Life
8. Burning
9. Little Black Women
10. Sweet Love
11. Kill For No Reason
12. Great Power Of Love
13. Heart On Fire
14. Tell Me
15. Hell On Wheels

"Log"
Exact Audio Copy V0.99 prebeta 5 from 4. May 2009

Отчёт EAC об извлечении, выполненном 11. января 2012, 0:39

Arch Of Decadence / Mansson

Дисковод: PIONEER DVD-RW DVR-219L Adapter: 2 ID: 0

Режим чтения : Достоверность
Использование точного потока : Да
Отключение кэша аудио : Да
Использование указателей C2 : Нет

Коррекция смещения при чтении : 6
Способность читать области Lead-in и Lead-out : Нет
Заполнение пропущенных сэмплов тишиной : Да
Удаление блоков с тишиной в начале и конце : Нет
При вычислениях CRC использовались нулевые сэмплы : Да
Интерфейс : Установленный внешний ASPI-интерфейс

Выходной формат : Внутренние WAV-операции
Формат сэмплов : 44.100 Гц; 16 бит; стерео


TOC извлечённого CD

Трек | Старт | Длительность | Начальный сектор | Конечный сектор
---------------------------------------------------------------------
1 | 0:00.00 | 1:19.65 | 0 | 5989
2 | 1:19.65 | 5:10.22 | 5990 | 29261
3 | 6:30.12 | 4:34.65 | 29262 | 49876
4 | 11:05.02 | 3:48.65 | 49877 | 67041
5 | 14:53.67 | 4:10.33 | 67042 | 85824
6 | 19:04.25 | 5:11.32 | 85825 | 109181
7 | 24:15.57 | 3:24.30 | 109182 | 124511
8 | 27:40.12 | 3:38.28 | 124512 | 140889
9 | 31:18.40 | 4:28.20 | 140890 | 161009
10 | 35:46.60 | 3:40.72 | 161010 | 177581
11 | 39:27.57 | 2:50.13 | 177582 | 190344
12 | 42:17.70 | 4:57.35 | 190345 | 212654
13 | 47:15.30 | 4:28.35 | 212655 | 232789
14 | 51:43.65 | 6:41.55 | 232790 | 262919
15 | 58:25.45 | 4:39.15 | 262920 | 283859


Характеристики диапазона извлечения и сообщения об ошибках

Выбранный диапазон

Имя файла D:\Mansson\Mansson - Arch Of Decadence.wav

Пиковый уровень 100.0 %
Качество диапазона 100.0 %
CRC копии 29B05FB9
Копирование... OK

Ошибок не произошло

Конец отчёта


"Cue"
REM GENRE "Hard 'N' Heavy"
REM DATE 1999
REM DISCID E10EC80F
REM COMMENT "ExactAudioCopy v0.99pb5"
PERFORMER "Arch Of Decadence"
TITLE "Mansson"
FILE "Mansson - Arch Of Decadence.flac" WAVE
TRACK 01 AUDIO
TITLE "01. Hounds Of Fulcrum\ Desert Eagle"
PERFORMER "Arch Of Decadence"
INDEX 01 00:00:00
TRACK 02 AUDIO
TITLE "02. Welcome To The Show"
PERFORMER "Arch Of Decadence"
INDEX 01 01:19:65
TRACK 03 AUDIO
TITLE "03. Touch Of Evil"
PERFORMER "Arch Of Decadence"
INDEX 00 06:27:69
INDEX 01 06:30:12
TRACK 04 AUDIO
TITLE "04. Waste Your Time"
PERFORMER "Arch Of Decadence"
INDEX 00 11:02:60
INDEX 01 11:05:02
TRACK 05 AUDIO
TITLE "05. Demolition"
PERFORMER "Arch Of Decadence"
INDEX 00 14:52:20
INDEX 01 14:53:67
TRACK 06 AUDIO
TITLE "06. Forever"
PERFORMER "Arch Of Decadence"
INDEX 00 19:01:45
INDEX 01 19:04:25
TRACK 07 AUDIO
TITLE "07. Part Of My Life"
PERFORMER "Arch Of Decadence"
INDEX 00 24:13:02
INDEX 01 24:15:57
TRACK 08 AUDIO
TITLE "08. Burning"
PERFORMER "Arch Of Decadence"
INDEX 00 27:38:35
INDEX 01 27:40:12
TRACK 09 AUDIO
TITLE "09. Little Black Women"
PERFORMER "Arch Of Decadence"
INDEX 00 31:15:62
INDEX 01 31:18:40
TRACK 10 AUDIO
TITLE "10. Sweet Love"
PERFORMER "Arch Of Decadence"
INDEX 00 35:44:07
INDEX 01 35:46:60
TRACK 11 AUDIO
TITLE "11. Kill For No Reason"
PERFORMER "Arch Of Decadence"
INDEX 00 39:26:02
INDEX 01 39:27:57
TRACK 12 AUDIO
TITLE "12. Great Power Of Love"
PERFORMER "Arch Of Decadence"
INDEX 00 42:15:17
INDEX 01 42:17:70
TRACK 13 AUDIO
TITLE "13. Heart On Fire"
PERFORMER "Arch Of Decadence"
INDEX 00 47:13:52
INDEX 01 47:15:30
TRACK 14 AUDIO
TITLE "14. Tell Me"
PERFORMER "Arch Of Decadence"
INDEX 00 51:42:10
INDEX 01 51:43:65
TRACK 15 AUDIO
TITLE "15. Hell On Wheels"
PERFORMER "Arch Of Decadence"
INDEX 00 58:23:57
INDEX 01 58:25:45


"Spectrum"
Image


http://narod.ru/disk/37231140001/Mansson%20-%20Arch%20Of%20Decadence%201999.rar.html

Если ещё кому надо...

_________________
:dash: I am happy!


Top
 Profile E-mail  
 
 
PostPosted: 13 Feb 2012 
Хиппей (support team)
User avatar
Joined: 30 Jul 2007
Posts: 108973
Lоcаtion: Киев (Kyiv, UA)
Age: 45
Name: Andrey
:thanx:
Надоть, не надоть, но надоть брать, пока есть :shok: :true:

mirror: Speedy l Narod

_________________


Top
 Profile E-mail  
 
 
PostPosted: 16 Feb 2012 
Хиппей (support team)
User avatar
Joined: 30 Jul 2007
Posts: 108973
Lоcаtion: Киев (Kyiv, UA)
Age: 45
Name: Andrey
Альбом средненький. Обычный хэви с приятным хрипловатым вокалом, красивыми гитарками и мелодиями.
Но мало хитовых вещей и чувствуется некая "второсортность" группы.

5+/10

Странно, что этот проект до сих пор не добавлен на М-А :vic:

phpBB [youtube]


Quote:
Song written by STORMBRINGER/PHOENIX/NEW BRAND guitarist Thomas Ahlberg.

Ebbe Weile - Vocals
Michael Borup - Bass
Jake Sandberg - Guitar
Michael Månsson - Guitar
Anders Johansson - Drums (Silver Mountain, Narnia, Yngwie Malmsteen, HammerFall, Art Metal, Jens Johansson, Empire, Winterlong, The Johansson Brothers, Keegan, Planet Alliance)
Richard Andersson - Keyboards (Space Odyssey, Majestic, Adagio (Fra), Silver Seraph, Evil Masquerade, Expedition Delta, Iron Mask, Time Requiem)

GUESTS:
Jonas Rhinegold (Midnight Sun, Opus Atlantica, Reptilian, Time Requiem)
Pete Sandberg (Midnight Sun, Alien, Jade, Opus Atlantica, Silver Seraph)
Pete Espinoza (Nasty Idols, Reptilian, Majestic, Espinoza, Rampage)

_________________


Top
 Profile E-mail  
 
 
PostPosted: 15 Apr 2012 
Работнечег
User avatar
Joined: 28 Aug 2007
Posts: 5606
Lоcаtion: г. Москва
Age: 29
Name: Дима
Мне понравился альбомчик, я бы оценку чуть повыше поставил) Спасибо, Юр! :true:


Top
 Profile E-mail  
 
Display posts from previous:  Sort by  
Post new topic Reply to topic  [ 4 posts ] 

All times are UTC + 3 hours


Who is online

Users browsing this forum: No registered users and 1 guest


You cannot post new topics in this forum
You cannot reply to topics in this forum
You cannot edit your posts in this forum
You cannot delete your posts in this forum
You cannot post attachments in this forum

Search for:
Яндекс.Метрика
Powered by phpBB © 2000, 2002, 2005, 2007 phpBB Group