\m/ 80's metal \m/

Информационно-аналитический форум "80 см пыли" (In Search We Trust) "У нас никто никуда не спешит"
Me For You - http://me-4u.com
It is currently 19 Nov 2018

All times are UTC + 3 hours

Spoiler
Chat - temporary registration for foreign users (please leave your application here)







Post new topic Reply to topic  [ 3 posts ] 
Author Message
 
PostPosted: 13 Feb 2012 
Генеральный thrasher
User avatar
Joined: 03 Oct 2008
Posts: 3506
Lоcаtion: Ханты-Мансийский АО
Age: 43
Name: Сергей
Image

Year:1992
Style:Hard Rock
Country:Czech Republic
Audio:Flac Tracks+Log
Size:303Mb
Label:Popron Music

Tracklist:
01. Proklatý stín
02. Krutá daň
3. Dead by Drugs 05:00
03. Dráždivý dotek
04. Soudím....
05. Zdolat Everest
06. Štvanci
07. Ani s tebou,ani se mnou
08. Sou to kecy
09. Kyvadlo času
10. Labyrint srdce

Log
Exact Audio Copy V0.99 prebeta 4 from 23. January 2008

Zбznam extrakce EAC z 22. Bшezen 2008, 13:42

Miloљ Dodo Doleћal / Drбћdivэ dotek

Pouћitб mechanika : TSSTcorpCDDVDW TS-H653B Adapter: 3 ID: 0

Reћim иtenн : Bezpeиnэ
Pouћнt accurate stream : Ano
Obejнt zvukovou vyr. pamмќ : Ano
Pouћнt C2 ukazatele : Ne

Korekce vychэlenн иtenн : 6
Инst lead-in a lead-out : Ne
Nahradit chybмjнcн vzorky tichem : Ano
Smazat ticho na zaибtku a na konci stop : Ne
Pшi vэpoиtu CRC pouћity nulovй vzorky : Ne
Pouћitй rozhranн : Integrovanй Win32 rozhranн pro NT/2k/XP
Naklбdбnн s mezerami : Vynechбny

Pouћitэ vэstupnн formбt : Uћivatelsky definovanэ encoder
Zvolenэ bitrate : 768 kBit/s
Kvalita : Vysokб
Pшidat ID3 tag : Ne
Komprimaиnн program pro pшнkazovэ шбdek : D:\PROGRAMY\Exact Audio Copy\FLAC\FLAC.EXE
Dodateиnй parametry : -8 -V -T "ARTIST=%a" -T "TITLE=%t" -T "ALBUM=%g" -T "DATE=%y" -T "TRACKNUMBER=%n" -T "GENRE=%m" -T "COMMENT=%e" %s -o %d


TOC extrahovanйho CD

Stopa | Poибtek | Dйlka | Poибteиnн sektor | Koncovэ sektor
-----------------------------------------------------------------
1 | 0:00.33 | 3:25.62 | 33 | 15469
2 | 3:26.20 | 3:29.30 | 15470 | 31174
3 | 6:55.50 | 3:42.43 | 31175 | 47867
4 | 10:38.18 | 4:59.42 | 47868 | 70334
5 | 15:37.60 | 4:59.33 | 70335 | 92792
6 | 20:37.18 | 4:26.15 | 92793 | 112757
7 | 25:03.33 | 4:05.17 | 112758 | 131149
8 | 29:08.50 | 3:33.48 | 131150 | 147172
9 | 32:42.23 | 4:57.15 | 147173 | 169462
10 | 37:39.38 | 5:28.07 | 169463 | 194069


Stopa 1

nбzev souboru E:\HUDBA\ZAPIS-A\Miloљ Dodo Doleћal 1992. Drбћdivэ dotek [FLAC]\01--Proklatэ_stнn.wav

dйlka mezery 0:00:02.33

љpiиkovб ъrovмт 100.0 %
kvalita stopy 100.0 %
CRC kopie 3B8142B3
Stopa nebyla zcela extrahovбna, nelze porovnat s AccurateRip
kopie OK

Stopa 2

nбzev souboru E:\HUDBA\ZAPIS-A\Miloљ Dodo Doleћal 1992. Drбћdivэ dotek [FLAC]\02--Krutб_daт.wav

dйlka mezery 0:00:00.03

љpiиkovб ъrovмт 98.8 %
kvalita stopy 100.0 %
CRC kopie 8331AC66
Stopa nebyla zcela extrahovбna, nelze porovnat s AccurateRip
kopie OK

Stopa 3

nбzev souboru E:\HUDBA\ZAPIS-A\Miloљ Dodo Doleћal 1992. Drбћdivэ dotek [FLAC]\03--Drбћdivэ_dotek.wav

dйlka mezery 0:00:00.02

љpiиkovб ъrovмт 100.0 %
kvalita stopy 100.0 %
CRC kopie F2EC44BA
Stopa nebyla zcela extrahovбna, nelze porovnat s AccurateRip
kopie OK

Stopa 4

nбzev souboru E:\HUDBA\ZAPIS-A\Miloљ Dodo Doleћal 1992. Drбћdivэ dotek [FLAC]\04--Soudнm....wav

dйlka mezery 0:00:01.39

љpiиkovб ъrovмт 100.0 %
kvalita stopy 100.0 %
CRC kopie 7F79AF7F
Stopa nenн v AccurateRip databбzi
kopie OK

Stopa 5

nбzev souboru E:\HUDBA\ZAPIS-A\Miloљ Dodo Doleћal 1992. Drбћdivэ dotek [FLAC]\05--Zdolat_Everest.wav

љpiиkovб ъrovмт 100.0 %
kvalita stopy 100.0 %
CRC kopie B3CBC5AB
Stopa nenн v AccurateRip databбzi
kopie OK

Stopa 6

nбzev souboru E:\HUDBA\ZAPIS-A\Miloљ Dodo Doleћal 1992. Drбћdivэ dotek [FLAC]\06--Љtvanci.wav

љpiиkovб ъrovмт 100.0 %
kvalita stopy 100.0 %
CRC kopie EB79EFC4
Stopa nenн v AccurateRip databбzi
kopie OK

Stopa 7

nбzev souboru E:\HUDBA\ZAPIS-A\Miloљ Dodo Doleћal 1992. Drбћdivэ dotek [FLAC]\07--Ani_s_tebou,_ani_se_mnou.wav

љpiиkovб ъrovмт 100.0 %
kvalita stopy 99.9 %
CRC kopie 50F39365
Stopa nebyla zcela extrahovбna, nelze porovnat s AccurateRip
kopie OK

Stopa 8

nбzev souboru E:\HUDBA\ZAPIS-A\Miloљ Dodo Doleћal 1992. Drбћdivэ dotek [FLAC]\08--’Sou_to_kecy.wav

dйlka mezery 0:00:00.15

љpiиkovб ъrovмт 100.0 %
kvalita stopy 100.0 %
CRC kopie 4F6DFFC1
Stopa nebyla zcela extrahovбna, nelze porovnat s AccurateRip
kopie OK

Stopa 9

nбzev souboru E:\HUDBA\ZAPIS-A\Miloљ Dodo Doleћal 1992. Drбћdivэ dotek [FLAC]\09--Kyvadlo_иasu.wav

dйlka mezery 0:00:00.64

љpiиkovб ъrovмт 100.0 %
kvalita stopy 100.0 %
CRC kopie 7B05A0FD
Stopa nebyla zcela extrahovбna, nelze porovnat s AccurateRip
kopie OK

Stopa 10

nбzev souboru E:\HUDBA\ZAPIS-A\Miloљ Dodo Doleћal 1992. Drбћdivэ dotek [FLAC]\10--Labyrint_srdce.wav

dйlka mezery 0:00:00.37

љpiиkovб ъrovмт 100.0 %
kvalita stopy 99.9 %
CRC kopie 5F4D58C4
Stopa nenн v AccurateRip databбzi
kopie OK


4 stopy nejsou v AccurateRip databбzi
6 stopy nebyly extrahovбny dostateиnм pro vyhledбnн v AccurateRip

Ћбdnй stopy nemohly bэt ovмшeny jako pшesnй

Nedoљlo k ћбdnэm chybбm

Konec stavovйho hlбљenн

Spectrum
Image

Frequency
Image

Tracks
Image


Image

Dráždivý Dotek

По просьбе glloomerxe.Неплохой задорный хард-рок от бывшего вокалиста группы "Vitacit".Может кому-то ещё понадобится...


Top
 Profile  
 
 
PostPosted: 13 Feb 2012 
Трешер
User avatar
Joined: 25 Feb 2011
Posts: 1062
Lоcаtion: Харьков
Age: 42
Name: Aleksandr
:shok: Спасибо огромное ! :true: Уже и не думал найти.


Top
 Profile E-mail  
 
 
PostPosted: 12 Mar 2012 
Хиппей (support team)
User avatar
Joined: 30 Jul 2007
Posts: 108153
Lоcаtion: Киев (Kyiv, UA)
Age: 45
Name: Andrey
:thanx:

mirror: Speedy l Narod

_________________


Top
 Profile E-mail  
 
Display posts from previous:  Sort by  
Post new topic Reply to topic  [ 3 posts ] 

All times are UTC + 3 hours


Who is online

Users browsing this forum: No registered users and 3 guests


You cannot post new topics in this forum
You cannot reply to topics in this forum
You cannot edit your posts in this forum
You cannot delete your posts in this forum
You cannot post attachments in this forum

Search for:
Яндекс.Метрика
Powered by phpBB © 2000, 2002, 2005, 2007 phpBB Group