\m/ 80's metal \m/

Информационно-аналитический форум "80 см пыли" (In Search We Trust) "У нас никто никуда не спешит"
Me For You - http://me-4u.com
It is currently 15 Nov 2018

All times are UTC + 3 hours

Spoiler
Chat - temporary registration for foreign users (please leave your application here)







Post new topic Reply to topic  [ 30 posts ]  Go to page Previous  1, 2
Author Message
 
PostPosted: 14 Dec 2011 
Хиппей (support team)
User avatar
Joined: 30 Jul 2007
Posts: 108009
Lоcаtion: Киев (Kyiv, UA)
Age: 45
Name: Andrey
zoti wrote:
Much people say all these torrents are not safe.

Do not believe the idiots :nunu:

_________________


Top
 Profile E-mail  
 
 
PostPosted: 16 Dec 2011 
Пионэръ
Joined: 25 Aug 2011
Posts: 48
Lоcаtion: Worl
Name: Zoltan Tivesko
Scatterbrain wrote:
zoti wrote:
Much people say all these torrents are not safe.

Do not believe the idiots :nunu:


I didn't think so. Torrents are risky - at least if you live in germany.


Top
 Profile E-mail  
 
 
PostPosted: 16 Dec 2011 
Хиппей (support team)
User avatar
Joined: 30 Jul 2007
Posts: 108009
Lоcаtion: Киев (Kyiv, UA)
Age: 45
Name: Andrey
This is contrary to your legislation, I understand you correctly?
Prior to that, thought you were talking about viruses...

_________________


Top
 Profile E-mail  
 
 
PostPosted: 16 Dec 2011 
Пионэръ
Joined: 25 Aug 2011
Posts: 48
Lоcаtion: Worl
Name: Zoltan Tivesko
Scatterbrain wrote:
This is contrary to your legislation, I understand you correctly?


Yes, and the torrents are a high risk.


Top
 Profile E-mail  
 
 
PostPosted: 19 Dec 2011 
Хиппей (support team)
User avatar
Joined: 30 Jul 2007
Posts: 108009
Lоcаtion: Киев (Kyiv, UA)
Age: 45
Name: Andrey
:crazy: Madness =)
You see all the files in the folder to download. Similarly, you can get by downloading the files via file sharing if not see what's inside.

Zoltan, you at least once he downloaded the torrent?

If you are allowed to download file sharing and why not with torrents? :starz:

_________________


Top
 Profile E-mail  
 
 
PostPosted: 19 Dec 2011 
Пионэръ
Joined: 25 Aug 2011
Posts: 48
Lоcаtion: Worl
Name: Zoltan Tivesko
It's all not allowed in the most countries, isn't it?
But downloading a rar-file via filesharing can not be tracked so easy. The content of a rar-file could be everything. You understand?


Top
 Profile E-mail  
 
 
PostPosted: 19 Dec 2011 
Power Metal Maniac
User avatar
Joined: 09 Aug 2008
Posts: 6351
Lоcаtion: Москва
Age: 40
Name: Егор
rutracker torrent do not allow rar-files. And you can download only needed files via it.

_________________
Long Live Metal!


Top
 Profile  
 
 
PostPosted: 25 Dec 2011 
Хиппей (support team)
User avatar
Joined: 30 Jul 2007
Posts: 108009
Lоcаtion: Киев (Kyiv, UA)
Age: 45
Name: Andrey
:starz: :dash: :cry:

Ок, завтра залью архив на MultiUpload.
Но это будет последняя такая услуга (одолжение).

_________________


Top
 Profile E-mail  
 
 
PostPosted: 25 Dec 2011 
Пионэръ
Joined: 25 Aug 2011
Posts: 48
Lоcаtion: Worl
Name: Zoltan Tivesko
I have found it:

http://www.megaupload.com/?d=GL16M2Y7

:true:


Top
 Profile E-mail  
 
 
PostPosted: 25 Dec 2011 
Хиппей (support team)
User avatar
Joined: 30 Jul 2007
Posts: 108009
Lоcаtion: Киев (Kyiv, UA)
Age: 45
Name: Andrey
Majesty - 2000 - Keep It True [flac]

Attachment:
booklet.jpg
booklet.jpg [ 3.72 MiB | Viewed 90 times ]


Genre: Heavy Metal/Power Metal
Location: Germany
Format: flac+cue+log+scans
Size: 318 Mb


    1. Keep It True - 04:56
    2. Strong As Steel - 05:39
    3. Hail To Majesty - 05:02
    4. Son Of Metal - 03:56
    5. Into The Night - 04:02
    6. Metal Force - 05:46
    7. We Will Ride - 04:47
    8. Last Revolution - 06:52

    TPT: 41:00

MultiUp l Narod

log
Exact Audio Copy V0.99 prebeta 5 from 4. May 2009

Отчёт EAC об извлечении, выполненном 23. августа 2010, 15:57

Majesty / Keep It True

Дисковод: Optiarc DVD RW AD-5240S Adapter: 2 ID: 1

Режим чтения : Достоверность
Использование точного потока : Да
Отключение кэша аудио : Да
Использование указателей C2 : Нет

Коррекция смещения при чтении : 48
Способность читать области Lead-in и Lead-out : Нет
Заполнение пропущенных сэмплов тишиной : Да
Удаление блоков с тишиной в начале и конце : Нет
При вычислениях CRC использовались нулевые сэмплы : Да
Интерфейс : Встроенный Win32-интерфейс для Win NT/2000

Выходной формат : Пользовательский кодировщик
Выбранный битрейт : 1024 kBit/s
Качество : Высокий
Добавление ID3-тэга : Нет
Утилита сжатия : C:\Program Files\Exact Audio Copy\FLAC\FLAC.EXE
Дополнительные параметры : -6 -V -T "ARTIST=%a" -T "TITLE=%t" -T "ALBUM=%g" -T "DATE=%y" -T "TRACKNUMBER=%n" -T "GENRE=%m" -T "COMMENT=%e" %s -o %d


TOC извлечённого CD

Трек | Старт | Длительность | Начальный сектор | Конечный сектор
---------------------------------------------------------------------
1 | 1:49.62 | 5:03.29 | 8237 | 30990
2 | 6:53.16 | 5:39.60 | 30991 | 56475
3 | 12:33.01 | 5:02.27 | 56476 | 79152
4 | 17:35.28 | 3:56.10 | 79153 | 96862
5 | 21:31.38 | 4:02.69 | 96863 | 115081
6 | 25:34.32 | 5:46.21 | 115082 | 141052
7 | 31:20.53 | 4:47.06 | 141053 | 162583
8 | 36:07.59 | 6:52.07 | 162584 | 193490


Характеристики диапазона извлечения и сообщения об ошибках

Выбранный диапазон

Имя файла E:\Новая папка (5)\Majesty - Keep It True.wav

Пиковый уровень 100.0 %
Качество диапазона 98.9 %
CRC теста D92FF685
CRC копии D92FF685
Копирование... OK

Ошибок не произошло


AccurateRip: сводка

Трек 1 нет в базе данных
Трек 2 нет в базе данных
Трек 3 нет в базе данных
Трек 4 нет в базе данных
Трек 5 нет в базе данных
Трек 6 нет в базе данных
Трек 7 нет в базе данных
Трек 8 точное извлечение (доверие 1) [FBB2F5DC]

1 трек(и) скопированы точно
7 трек(и) не содержатся в базе AccurateRip

Некоторые треки не прошли проверку на точность

Конец отчёта


cue
REM GENRE Metal
REM DATE 1999
REM DISCID 6E09A608
REM COMMENT "ExactAudioCopy v0.99pb5"
PERFORMER "Majesty"
TITLE "Keep It True"
FILE "Majesty - Keep It True.flac" WAVE
TRACK 01 AUDIO
TITLE "Keep It True"
PERFORMER "Majesty"
INDEX 00 00:00:00
INDEX 01 01:49:62
TRACK 02 AUDIO
TITLE "Strong As Steel"
PERFORMER "Majesty"
INDEX 00 06:49:40
INDEX 01 06:53:16
TRACK 03 AUDIO
TITLE "Hail To Majesty"
PERFORMER "Majesty"
INDEX 00 12:29:33
INDEX 01 12:33:01
TRACK 04 AUDIO
TITLE "Son Of Metal"
PERFORMER "Majesty"
INDEX 00 17:30:14
INDEX 01 17:35:28
TRACK 05 AUDIO
TITLE "Into The Night"
PERFORMER "Majesty"
INDEX 01 21:31:38
TRACK 06 AUDIO
TITLE "Metal Force"
PERFORMER "Majesty"
INDEX 00 25:28:51
INDEX 01 25:34:32
TRACK 07 AUDIO
TITLE "We Will Ride"
PERFORMER "Majesty"
INDEX 01 31:20:53
TRACK 08 AUDIO
TITLE "Last Revolution"
PERFORMER "Majesty"
INDEX 00 36:03:02
INDEX 01 36:07:59


spectrum
Attachment:
spectrum.jpg
spectrum.jpg [ 346.58 KiB | Viewed 89 times ]

_________________


Top
 Profile E-mail  
 
Display posts from previous:  Sort by  
Post new topic Reply to topic  [ 30 posts ]  Go to page Previous  1, 2

All times are UTC + 3 hours


Who is online

Users browsing this forum: No registered users and 2 guests


You cannot post new topics in this forum
You cannot reply to topics in this forum
You cannot edit your posts in this forum
You cannot delete your posts in this forum
You cannot post attachments in this forum

Search for:
Яндекс.Метрика
Powered by phpBB © 2000, 2002, 2005, 2007 phpBB Group