\m/ 80's metal \m/

Информационно-аналитический форум "80 см пыли" (In Search We Trust) "У нас никто никуда не спешит"
Me For You - http://me-4u.com
It is currently 20 Sep 2018

All times are UTC + 3 hours

Spoiler
Chat - temporary registration for foreign users (please leave your application here)







Post new topic Reply to topic  [ 5 posts ] 
Author Message
 
PostPosted: 23 Oct 2011 
Работнечег
User avatar
Joined: 28 Aug 2007
Posts: 5409
Lоcаtion: г. Москва
Age: 29
Name: Дима
Attachment:
Front.jpg
Front.jpg [ 897.83 KiB | Viewed 117 times ]


Band: Mercy
Album: Underground
Year: 2003
Label: TPL Records
Genre: Traditional Doom Metal
Coutry: Sweden
Format: Flac + Log + Cue + Covers
Size: 384 Mb

Line-Up:
Andrija Veljaca (aka Andree Witchking/Yandriya Weechking)) - Lead Vocals, Backing Vocals, Bass, Lead & Rhytm Guitars
Special Guest: Adam Pavlovic - Drums
Messiah Marcolin - Vocals on track 11-13


Tracklist:
1. Funeral Tango 01:29
2. Underground 06:41
3. Crazy Mama 05:21
4. Black Sun 05:53
5. Erotica 04:13
6. Popocatepetl 07:03
7. Hush (Deep Purple Cover) 03:46
8. Piccolo 00:12
9. Thunderload 04:32
10. Metal Invasion, Radio Canada, Sascafon (Bonus) 03:09
11. H.M. Warriors 1983 (Bonus) 04:07
12. Black Death 1983 (Bonus) 06:43
13. Bangers Of Destruction (Bonus) 04:47

LOG
Exact Audio Copy V0.99 prebeta 5 from 4. May 2009

EAC extraction logfile from 24. April 2011, 15:25

Mercy / Underground

Used drive : PIONEER DVD-RW DVR-116D Adapter: 0 ID: 0

Read mode : Secure
Utilize accurate stream : Yes
Defeat audio cache : Yes
Make use of C2 pointers : No

Read offset correction : 96
Overread into Lead-In and Lead-Out : No
Fill up missing offset samples with silence : Yes
Delete leading and trailing silent blocks : No
Null samples used in CRC calculations : Yes
Used interface : Native Win32 interface for Win NT & 2000

Used output format : User Defined Encoder
Selected bitrate : 32 kBit/s
Quality : High
Add ID3 tag : No
Command line compressor : C:\Program Files\Exact Audio Copy\Flac\flac.exe
Additional command line options : -6 -V %s


TOC of the extracted CD

Track | Start | Length | Start sector | End sector
---------------------------------------------------------
1 | 0:00.00 | 1:29.01 | 0 | 6675
2 | 1:29.01 | 6:40.38 | 6676 | 36713
3 | 8:09.39 | 5:20.66 | 36714 | 60779
4 | 13:30.30 | 5:52.44 | 60780 | 87223
5 | 19:22.74 | 4:12.61 | 87224 | 106184
6 | 23:35.60 | 7:03.01 | 106185 | 137910
7 | 30:38.61 | 3:45.57 | 137911 | 154842
8 | 34:24.43 | 0:12.27 | 154843 | 155769
9 | 34:36.70 | 4:32.12 | 155770 | 176181
10 | 39:09.07 | 3:09.25 | 176182 | 190381
11 | 42:18.32 | 4:06.43 | 190382 | 208874
12 | 46:25.00 | 6:43.35 | 208875 | 239134
13 | 53:08.35 | 4:46.56 | 239135 | 260640


Range status and errors

Selected range

Filename D:\Музыка\Lossless\Mercy - Underground (2003)\Mercy - Underground.wav

Peak level 98.0 %
Range quality 99.9 %
Copy CRC DBBCAA0F
Copy OK

No errors occurred


AccurateRip summary

Track 1 not present in database
Track 2 not present in database
Track 3 not present in database
Track 4 not present in database
Track 5 not present in database
Track 6 not present in database
Track 7 not present in database
Track 8 not present in database
Track 9 not present in database
Track 10 not present in database
Track 11 not present in database
Track 12 not present in database
Track 13 not present in database

None of the tracks are present in the AccurateRip database

End of status report

CUE
REM GENRE "Heavy/Doom Metal"
REM DATE 2003
REM DISCID A50D930D
REM COMMENT "ExactAudioCopy v0.99pb5"
PERFORMER "Mercy"
TITLE "Underground"
FILE "Mercy - Underground.flac" WAVE
TRACK 01 AUDIO
TITLE "Funeral Tango"
PERFORMER "Mercy"
INDEX 01 00:00:00
TRACK 02 AUDIO
TITLE "Underground"
PERFORMER "Mercy"
INDEX 00 01:27:15
INDEX 01 01:29:01
TRACK 03 AUDIO
TITLE "Crazy Mama"
PERFORMER "Mercy"
INDEX 00 08:07:57
INDEX 01 08:09:39
TRACK 04 AUDIO
TITLE "Black Sun"
PERFORMER "Mercy"
INDEX 00 13:28:46
INDEX 01 13:30:30
TRACK 05 AUDIO
TITLE "Erotica"
PERFORMER "Mercy"
INDEX 00 19:21:20
INDEX 01 19:22:74
TRACK 06 AUDIO
TITLE "Popocatepetl"
PERFORMER "Mercy"
INDEX 00 23:34:03
INDEX 01 23:35:60
TRACK 07 AUDIO
TITLE "Hush"
PERFORMER "Mercy"
INDEX 00 30:37:10
INDEX 01 30:38:61
TRACK 08 AUDIO
TITLE "Piccolo"
PERFORMER "Mercy"
INDEX 00 34:22:53
INDEX 01 34:24:43
TRACK 09 AUDIO
TITLE "Thunderload"
PERFORMER "Mercy"
INDEX 00 34:35:21
INDEX 01 34:36:70
TRACK 10 AUDIO
TITLE "Metal Invasion,Radio Canada,Sascafon (Bonus Track)"
PERFORMER "Mercy"
INDEX 00 39:07:22
INDEX 01 39:09:07
TRACK 11 AUDIO
TITLE "H.M. Warriors 1983 (Bonus Track)"
PERFORMER "Mercy"
INDEX 00 42:16:56
INDEX 01 42:18:32
TRACK 12 AUDIO
TITLE "Black Death 1985 (Bonus Track)"
PERFORMER "Mercy"
INDEX 00 46:23:12
INDEX 01 46:25:00
TRACK 13 AUDIO
TITLE "Bangers Of Destruction 1985 (Bonus Track)"
PERFORMER "Mercy"
INDEX 00 53:06:43
INDEX 01 53:08:35

Spectrum
Attachment:
ScreenHunter_01 Oct. 23 23.06.jpg
ScreenHunter_01 Oct. 23 23.06.jpg [ 211.82 KiB | Viewed 124 times ]


Narod.Ru

Альбом написанный одним человеком и собственно основным вдохновителем Mercy Andrija Veljaca вышел на хорошем уровне. Есть и медленные риффы, и довольно бодрые вставочки. Вот этот альбом в отличии от Victory March уже вполне можно считать traditional doom'ом.
Альбом Victory March кому интересно, у нас был:
viewtopic.php?f=186&t=9321
За ссылочкой не уследил, обновлю завтра.


Top
 Profile E-mail  
 
 
PostPosted: 24 Oct 2011 
Прокъмитолист
User avatar
Joined: 12 Aug 2007
Posts: 6469
Lоcаtion: Санктъ-Петербуркъ
Age: 50
Name: Олекъ
спасибо, Дим! :thanx: :true:

_________________
прокъметол - это музыко, от которово есть прок (ы)


Top
 Profile  
 
 
PostPosted: 24 Oct 2011 
Хиппей (support team)
User avatar
Joined: 30 Jul 2007
Posts: 106327
Lоcаtion: Киев (Kyiv, UA)
Age: 45
Name: Andrey
:thanx:

mirror: MultiUp l Narod

Кажись Лёне есть что сказать по этому альбому и по переизданиям... :oops:

_________________


Top
 Profile E-mail  
 
 
PostPosted: 29 Oct 2011 
Пионэръ
User avatar
Joined: 08 Nov 2010
Posts: 43
Lоcаtion: Россия
Name: Юрий
Спасибо, забираю!


Top
 Profile E-mail  
 
 
PostPosted: 21 Nov 2012 
5-speed satisfactor
User avatar
Joined: 16 Feb 2009
Posts: 3554
Lоcаtion: New York, USA
Age: 40
Name: Leonid
:thanx:

_________________
Death rules! Metal to all who oppose!


Top
 Profile  
 
Display posts from previous:  Sort by  
Post new topic Reply to topic  [ 5 posts ] 

All times are UTC + 3 hours


Who is online

Users browsing this forum: No registered users and 2 guests


You cannot post new topics in this forum
You cannot reply to topics in this forum
You cannot edit your posts in this forum
You cannot delete your posts in this forum
You cannot post attachments in this forum

Search for:
Яндекс.Метрика
cron
Powered by phpBB © 2000, 2002, 2005, 2007 phpBB Group