\m/ 80's metal \m/

Информационно-аналитический форум "80 см пыли" (In Search We Trust) "У нас никто никуда не спешит"
Me For You - http://me-4u.com
It is currently 18 Sep 2019

All times are UTC + 3 hours

Spoiler
Chat - temporary registration for foreign users (please leave your application here)







Post new topic Reply to topic  [ 5 posts ] 
Author Message
 
PostPosted: 03 May 2015 
Работнечег
User avatar
Joined: 28 Aug 2007
Posts: 5995
Lоcаtion: г. Москва
Age: 30
Name: Дима
Image

Label: Self-released
Genre: Hard Rock
Country: Canada
Format: Flac + Log + Cue + Covers
Size: 303 Mb

Tracklist:
1. Skin to Win 03:55
2. Guilty as Charged 04:19
3. It's Hard on Love 04:46
4. Save It for Me 03:35
5. Living For the Night 03:11
6. Love Song in F# 00:11
7. Solid Rock 03:17
8. Too Young to Die 02:56
9. Three the Hard Way 04:54
10. Hit 'N' Run 03:27
11. You Kill Me 03:45
12. Bad Boys of Rock 03:20

LOG
Exact Audio Copy V0.99 prebeta 5 from 4. May 2009

EAC extraction logfile from 14. March 2015, 15:01

Lawsuit / Stoned To Death

Used drive : PIONEER DVD-RW DVR-221 Adapter: 2 ID: 1

Read mode : Secure
Utilize accurate stream : Yes
Defeat audio cache : Yes
Make use of C2 pointers : No

Read offset correction : 6
Overread into Lead-In and Lead-Out : No
Fill up missing offset samples with silence : Yes
Delete leading and trailing silent blocks : No
Null samples used in CRC calculations : Yes
Used interface : Native Win32 interface for Win NT & 2000

Used output format : User Defined Encoder
Selected bitrate : 32 kBit/s
Quality : High
Add ID3 tag : No
Command line compressor : C:\Program Files\Exact Audio Copy\Flac\flac.exe
Additional command line options : -6 -V %s


TOC of the extracted CD

Track | Start | Length | Start sector | End sector
---------------------------------------------------------
1 | 0:00.00 | 3:54.46 | 0 | 17595
2 | 3:54.46 | 4:18.55 | 17596 | 37000
3 | 8:13.26 | 4:45.49 | 37001 | 58424
4 | 12:59.00 | 3:35.18 | 58425 | 74567
5 | 16:34.18 | 3:10.54 | 74568 | 88871
6 | 19:44.72 | 0:11.25 | 88872 | 89721
7 | 19:56.22 | 3:16.61 | 89722 | 104482
8 | 23:13.08 | 2:56.14 | 104483 | 117696
9 | 26:09.22 | 4:53.41 | 117697 | 139712
10 | 31:02.63 | 3:27.19 | 139713 | 155256
11 | 34:30.07 | 3:45.26 | 155257 | 172157
12 | 38:15.33 | 3:19.48 | 172158 | 187130


Range status and errors

Selected range

Filename D:\Музыка\Lossless\Lawsuit - Stoned To Death (2005)\Lawsuit - Stoned To Death.wav

Peak level 100.0 %
Range quality 100.0 %
Copy CRC CB4651D1
Copy OK

No errors occurred


AccurateRip summary

Track 1 not present in database
Track 2 not present in database
Track 3 not present in database
Track 4 not present in database
Track 5 not present in database
Track 6 not present in database
Track 7 not present in database
Track 8 not present in database
Track 9 not present in database
Track 10 not present in database
Track 11 not present in database
Track 12 not present in database

None of the tracks are present in the AccurateRip database

End of status report

CUE
REM GENRE Rock
REM DATE 2003
REM DISCID BC09BF0C
REM COMMENT "ExactAudioCopy v0.99pb5"
PERFORMER "Lawsuit"
TITLE "Stoned To Death"
FILE "Lawsuit - Stoned To Death.flac" WAVE
TRACK 01 AUDIO
TITLE "Skin To Win"
PERFORMER "Lawsuit"
INDEX 01 00:00:00
TRACK 02 AUDIO
TITLE "Guilty As Charged"
PERFORMER "Lawsuit"
INDEX 01 03:54:46
TRACK 03 AUDIO
TITLE "It's Hard On Love"
PERFORMER "Lawsuit"
INDEX 01 08:13:26
TRACK 04 AUDIO
TITLE "Save It For Me"
PERFORMER "Lawsuit"
INDEX 01 12:59:00
TRACK 05 AUDIO
TITLE "Living For The Night"
PERFORMER "Lawsuit"
INDEX 01 16:34:18
TRACK 06 AUDIO
TITLE "Love Song In F#"
PERFORMER "Lawsuit"
INDEX 01 19:44:72
TRACK 07 AUDIO
TITLE "Solid Rock"
PERFORMER "Lawsuit"
INDEX 01 19:56:22
TRACK 08 AUDIO
TITLE "Too Young To Die"
PERFORMER "Lawsuit"
INDEX 01 23:13:08
TRACK 09 AUDIO
TITLE "Three The Hard Way"
PERFORMER "Lawsuit"
INDEX 01 26:09:22
TRACK 10 AUDIO
TITLE "Hit 'N' Run"
PERFORMER "Lawsuit"
INDEX 01 31:02:63
TRACK 11 AUDIO
TITLE "You Kill Me"
PERFORMER "Lawsuit"
INDEX 01 34:30:07
TRACK 12 AUDIO
TITLE "Bad Boys Of Rock"
PERFORMER "Lawsuit"
INDEX 01 38:15:33



Flac

За предоставленный диск спасибо Саше spryt777! Качественная приятная харда, если бы выкинуть пару песен, то альбом был бы вообще достоен всяческих похвал! Рекомендую, Косте oldrocker, Сергею Sergey, Юре uriyy и Мише Liege Steel! Думаю им понравится! Есть вопросы по поводу года издания. На официальном сайте написан 2003, во вкладке диска написано Published By Shaking Publishing 2004, а на самом диске стоит 2005, так что хрен тут поймешь :crazy:




Top
 Profile E-mail  
 
 
PostPosted: 03 May 2015 
Персональный статус
User avatar
Joined: 28 Mar 2013
Posts: 421
Lоcаtion: Russia (Bryansk)
Age: 26
Name: Michael
Спасибо за рип Саша и Дима! Было в 192, старый удалю. :dance:


Top
 Profile E-mail  
 
 
PostPosted: 04 May 2015 
5-speed satisfactor
User avatar
Joined: 16 Feb 2009
Posts: 3761
Lоcаtion: New York, USA
Age: 41
Name: Leonid
Перевод:
Группа: судебное Дело
Альбом: Обдолбанный До Смерти

_________________
Death rules! Metal to all who oppose!


Top
 Profile  
 
 
PostPosted: 04 May 2015 
Работнечег
User avatar
Joined: 28 Aug 2007
Posts: 5995
Lоcаtion: г. Москва
Age: 30
Name: Дима
Больше на название детектива подошло бы какого-нибудь :crazy:


Top
 Profile E-mail  
 
 
PostPosted: 30 Oct 2016 
Я набрал 1000 сообщений!
Joined: 24 Oct 2009
Posts: 2251
Lоcаtion: Оренбург
Age: 56
Name: Юра
О!... Дим спасибо! :thanx: Только наткнулся...

_________________
:dash: I am happy!


Top
 Profile E-mail  
 
Display posts from previous:  Sort by  
Post new topic Reply to topic  [ 5 posts ] 

All times are UTC + 3 hours


Who is online

Users browsing this forum: No registered users and 2 guests


You cannot post new topics in this forum
You cannot reply to topics in this forum
You cannot edit your posts in this forum
You cannot delete your posts in this forum
You cannot post attachments in this forum

Search for:
Яндекс.Метрика
Powered by phpBB © 2000, 2002, 2005, 2007 phpBB Group