\m/ 80's metal \m/

Информационно-аналитический форум "80 см пыли" (In Search We Trust) "У нас никто никуда не спешит"
Me For You - http://me-4u.com
It is currently 17 Oct 2019

All times are UTC + 3 hours

Spoiler
Chat - temporary registration for foreign users (please leave your application here)







Post new topic Reply to topic  [ 12 posts ] 
Author Message
 
PostPosted: 27 Jun 2011 
Работнечег
User avatar
Joined: 28 Aug 2007
Posts: 6031
Lоcаtion: г. Москва
Age: 30
Name: Дима
Killers - Resistances (1989) (Reissued In 1997)

Image

Band: Killers
Album: Resistances
Label: Brennus Records
Genre: Speed Metal
Country: France
Format: Flac + Log + Cue + Covers
Size: 250 Mb

Line-Up:
Bruno Dolheguy — Guitars
Philippe Borda — Drums
François Merle — Guitars
Serge Pujos — Vocals
René Chavin — Bass


Tracklist:
1. Vengeance 05:10
2. Prisonnier 04:50
3. Rêves Secrets 04:35
4. Résistances 04:35
5. Métamorphose 03:30
6. Soleil Noir 03:45
7. Clandestinité 04:15
8. Roi du Speed 02:55
9. Longue Vie au Metal 02:55

LOG
Exact Audio Copy V0.99 prebeta 5 from 4. May 2009

EAC extraction logfile from 19. June 2011, 15:04

Killers / Resistances

Used drive : PIONEER DVD-RW DVR-116D Adapter: 0 ID: 0

Read mode : Secure
Utilize accurate stream : Yes
Defeat audio cache : Yes
Make use of C2 pointers : No

Read offset correction : 96
Overread into Lead-In and Lead-Out : No
Fill up missing offset samples with silence : Yes
Delete leading and trailing silent blocks : No
Null samples used in CRC calculations : Yes
Used interface : Native Win32 interface for Win NT & 2000

Used output format : User Defined Encoder
Selected bitrate : 32 kBit/s
Quality : High
Add ID3 tag : No
Command line compressor : C:\Program Files\Exact Audio Copy\Flac\flac.exe
Additional command line options : -6 -V %s


TOC of the extracted CD

Track | Start | Length | Start sector | End sector
---------------------------------------------------------
1 | 0:00.00 | 5:01.02 | 0 | 22576
2 | 5:01.02 | 4:47.60 | 22577 | 44161
3 | 9:48.62 | 4:38.00 | 44162 | 65011
4 | 14:26.62 | 4:39.70 | 65012 | 86006
5 | 19:06.57 | 3:33.45 | 86007 | 102026
6 | 22:40.27 | 3:44.43 | 102027 | 118869
7 | 26:24.70 | 4:16.22 | 118870 | 138091
8 | 30:41.17 | 2:56.08 | 138092 | 151299
9 | 33:37.25 | 2:55.25 | 151300 | 164449


Range status and errors

Selected range

Filename D:\Музыка\Lossless\Killers - Resistances (1989) (Reissued In 1997)\Killers - Resistances.wav

Peak level 97.7 %
Range quality 99.9 %
Copy CRC 43ED8112
Copy OK

No errors occurred


AccurateRip summary

Track 1 not present in database
Track 2 not present in database
Track 3 not present in database
Track 4 not present in database
Track 5 not present in database
Track 6 not present in database
Track 7 not present in database
Track 8 not present in database
Track 9 not present in database

None of the tracks are present in the AccurateRip database

End of status report

CUE
REM GENRE "Speed Metal"
REM DATE 1989
REM DISCID 76089009
REM COMMENT "ExactAudioCopy v0.99pb5"
PERFORMER "Killers"
TITLE "Resistances"
FILE "Killers - Resistances.flac" WAVE
TRACK 01 AUDIO
TITLE "Vengeance"
PERFORMER "Killers"
FLAGS DCP
INDEX 01 00:00:00
TRACK 02 AUDIO
TITLE "Prisonnier"
PERFORMER "Killers"
FLAGS DCP
INDEX 01 05:01:02
TRACK 03 AUDIO
TITLE "Reves Secrets"
PERFORMER "Killers"
FLAGS DCP
INDEX 01 09:48:62
TRACK 04 AUDIO
TITLE "Resistances"
PERFORMER "Killers"
FLAGS DCP
INDEX 01 14:26:62
TRACK 05 AUDIO
TITLE "Metamorphose"
PERFORMER "Killers"
FLAGS DCP
INDEX 01 19:06:57
TRACK 06 AUDIO
TITLE "Soleil Noir"
PERFORMER "Killers"
FLAGS DCP
INDEX 01 22:40:27
TRACK 07 AUDIO
TITLE "Clandestinite"
PERFORMER "Killers"
FLAGS DCP
INDEX 01 26:24:70
TRACK 08 AUDIO
TITLE "Roi du Speed"
PERFORMER "Killers"
FLAGS DCP
INDEX 01 30:41:17
TRACK 09 AUDIO
TITLE "Longue Vie au Metal"
PERFORMER "Killers"
FLAGS DCP
INDEX 01 33:37:25


F

Из прослушанных/переслушанных за недавнее время первых 4х альбомов и Fort Interieur - этот на мой взгляд является самым сильным. Особенно Clandestinite понравилась :true:


Last edited by church on 08 Jun 2013, edited 1 time in total.

Top
 Profile E-mail  
 
 
PostPosted: 27 Jun 2011 
Прокъмитолист
User avatar
Joined: 12 Aug 2007
Posts: 6623
Lоcаtion: Санктъ-Петербуркъ
Age: 51
Name: Олекъ
утащу в копилочку и такой рип еще. спасибо, Димка! :thanx:

_________________
прокъметол - это музыко, от которово есть прок (ы)


Top
 Profile  
 
 
PostPosted: 29 Jun 2011 
Хиппей (support team)
User avatar
Joined: 30 Jul 2007
Posts: 114883
Lоcаtion: Киев (Kyiv, UA)
Age: 46
Name: Andrey
:thanx:
mirror: MultiUp l Narod

_________________


Top
 Profile E-mail  
 
 
PostPosted: 27 May 2013 
Хиппей (support team)
User avatar
Joined: 30 Jul 2007
Posts: 114883
Lоcаtion: Киев (Kyiv, UA)
Age: 46
Name: Andrey
Ой, вот и начались погромы :crazy:

Ссылку на Народе блокирнули :pardon:
Понятно, что группа типа пытается блюсти копирайство и прочее. Или издатель или просто забанили файл по названию, но...
Если у кого вдруг есть возможность, перезалейте еще раз, пожалуйста, лосика :thanx:

_________________


Top
 Profile E-mail  
 
 
PostPosted: 27 May 2013 
Генеральный thrasher
User avatar
Joined: 03 Oct 2008
Posts: 3738
Lоcаtion: Ханты-Мансийский АО
Age: 44
Name: Сергей
Блин!Думал у меня есть...А оказывается только потрэковый рип...


Top
 Profile  
 
 
PostPosted: 27 May 2013 
Хиппей (support team)
User avatar
Joined: 30 Jul 2007
Posts: 114883
Lоcаtion: Киев (Kyiv, UA)
Age: 46
Name: Andrey
А, да норм. У Димки точно есть.
Только теперича нужно будет имя архива сокращать.

Топик принципиально переименовывать не буду, хоть по нему нас Гугел и видит и палит :crazy:

_________________


Top
 Profile E-mail  
 
 
PostPosted: 08 Jun 2013 
Работнечег
User avatar
Joined: 28 Aug 2007
Posts: 6031
Lоcаtion: г. Москва
Age: 30
Name: Дима
Новая ссылка в первом посте) Странно тогда, что остальные ссылки не заблочили.. пока


Top
 Profile E-mail  
 
 
PostPosted: 09 Jun 2013 
Хиппей (support team)
User avatar
Joined: 30 Jul 2007
Posts: 114883
Lоcаtion: Киев (Kyiv, UA)
Age: 46
Name: Andrey
Дим, спасибо! :true:

mirror: F-Bit l Narod

_________________


Top
 Profile E-mail  
 
 
PostPosted: 09 Jun 2013 
Хиппей (support team)
User avatar
Joined: 30 Jul 2007
Posts: 114883
Lоcаtion: Киев (Kyiv, UA)
Age: 46
Name: Andrey
Новая ссылка в первом посте) Странно тогда, что остальные ссылки не заблочили.. пока

Мои? Или именно на эту группу? :vic:

_________________


Top
 Profile E-mail  
 
 
PostPosted: 09 Jun 2013 
Работнечег
User avatar
Joined: 28 Aug 2007
Posts: 6031
Lоcаtion: г. Москва
Age: 30
Name: Дима
Именно на эту группу) и твои, и мои))
реап сними, Андрюх ;)


Top
 Profile E-mail  
 
 
PostPosted: 09 Jun 2013 
*** Умер ***
User avatar
Joined: 25 Apr 2009
Posts: 2188
Lоcаtion: Санкт-Петербург
Age: 33
Name: Кирилл
:thanx:


Top
 Profile E-mail  
 
 
PostPosted: 09 Jun 2013 
Хиппей (support team)
User avatar
Joined: 30 Jul 2007
Posts: 114883
Lоcаtion: Киев (Kyiv, UA)
Age: 46
Name: Andrey
church wrote:
реап сними

Ой. Вроде ж с утра снимал. Убираю :dance:

_________________


Top
 Profile E-mail  
 
Display posts from previous:  Sort by  
Post new topic Reply to topic  [ 12 posts ] 

All times are UTC + 3 hours


Who is online

Users browsing this forum: No registered users and 2 guests


You cannot post new topics in this forum
You cannot reply to topics in this forum
You cannot edit your posts in this forum
You cannot delete your posts in this forum
You cannot post attachments in this forum

Search for:
Яндекс.Метрика
Powered by phpBB © 2000, 2002, 2005, 2007 phpBB Group